<?xml version="1.0" standalone="no"?>
<!DOCTYPE svg PUBLIC "-//W3C//DTD SVG 1.1//EN" "http://www.w3.org/Graphics/SVG/1.1/DTD/svg11.dtd" >
<svg xmlns="http://www.w3.org/2000/svg" xmlns:xlink="http://www.w3.org/1999/xlink" version="1.1">
<metadata>
Created by FontForge 20160407 at Sat Sep  3 17:54:17 2016
 By Jimmy Warting
Copyright (c) 2011 JM Sole (info@jmsole.cl), with Reserved Font Name "Alfa Slab One"
</metadata>
<defs>
<font id="AlfaSlabOne-Regular" horiz-adv-x="0" >
  <font-face 
    font-family="Alfa Slab One"
    font-weight="400"
    font-stretch="normal"
    units-per-em="1000"
    panose-1="2 0 5 7 5 0 0 2 0 4"
    ascent="800"
    descent="-200"
    x-height="556"
    cap-height="778"
    bbox="-90 -333 1257 1036"
    underline-thickness="50"
    underline-position="-100"
    unicode-range="U+0001-F6C3"
  />
<missing-glyph horiz-adv-x="782" 
d="M88 778h606v-1000h-606v1000zM441 277l140 -346v693zM340 277l-139 347v-693zM391 403l109 271h-218zM391 152l-109 -270h218z" />
    <glyph glyph-name=".notdef" horiz-adv-x="782" 
d="M88 778h606v-1000h-606v1000zM441 277l140 -346v693zM340 277l-139 347v-693zM391 403l109 271h-218zM391 152l-109 -270h218z" />
    <glyph glyph-name=".null" 
 />
    <glyph glyph-name="nonmarkingreturn" 
 />
    <glyph glyph-name="space" unicode=" " horiz-adv-x="300" 
 />
    <glyph glyph-name="R" unicode="R" horiz-adv-x="814" 
d="M366 164h66v-164h-406v164h60v450h-60v164h469q61 0 110.5 -12t83.5 -38.5t52.5 -69.5t18.5 -105q0 -66 -26.5 -115t-77.5 -69l1 -10q96 -15 96 -118v-77h47v-164h-317v235q0 30 -6.5 48.5t-21 28t-36.5 13t-53 3.5v-164zM420 450q29 0 43.5 15t14.5 49v36q0 34 -14.5 49
t-43.5 15h-54v-164h54z" />
    <glyph glyph-name="N" unicode="N" horiz-adv-x="952" 
d="M596 778h350v-164h-60v-614h-281l-293 451v-287h60v-164h-350v164h60v450h-60v164h371l263 -402v238h-60v164z" />
    <glyph glyph-name="E" unicode="E" horiz-adv-x="735" 
d="M487 614h-121v-158h88v-114h-88v-178h121v158h224v-322h-685v164h60v450h-60v164h685v-302h-224v138z" />
    <glyph glyph-name="F" unicode="F" horiz-adv-x="644" 
d="M459 614h-91v-166h151v-114h-151v-170h131v-164h-471v164h60v450h-60v164h608v-259h-177v95z" />
    <glyph glyph-name="I" unicode="I" horiz-adv-x="438" 
d="M24 778h400v-164h-60v-450h60v-164h-400v164h60v450h-60v164z" />
    <glyph glyph-name="L" unicode="L" horiz-adv-x="671" 
d="M26 778h432v-164h-92v-450h90v92h199v-256h-629v164h60v450h-60v164z" />
    <glyph glyph-name="P" unicode="P" horiz-adv-x="754" 
d="M402 450q28 0 43 15t15 49v36q0 34 -14.5 49t-43.5 15h-34v-164h34zM464 0h-436v164h60v450h-60v164h449q61 0 110.5 -12.5t83.5 -40.5t52.5 -73t18.5 -109q0 -65 -18.5 -109.5t-52.5 -72.5t-83.5 -40.5t-110.5 -12.5h-109v-144h96v-164z" />
    <glyph glyph-name="B" unicode="B" horiz-adv-x="795" 
d="M26 778h469q123 0 194 -50t71 -147q0 -48 -18 -82t-44 -56t-54.5 -34t-49.5 -16v-10q22 -2 54 -9.5t61 -27t49.5 -54t20.5 -90.5t-23 -94.5t-62 -62.5t-90.5 -34.5t-108.5 -10.5h-469v164h60v450h-60v164zM420 450q29 0 43.5 15t14.5 49v36q0 34 -14.5 49t-43.5 15h-54
v-164h54zM427 164q29 0 43.5 15t14.5 49v44q0 34 -14.5 49t-43.5 15h-61v-172h61z" />
    <glyph glyph-name="D" unicode="D" horiz-adv-x="826" 
d="M28 778h416q77 0 143.5 -19.5t115.5 -65.5t77 -120.5t28 -183.5q0 -110 -28 -184t-77 -120t-115.5 -65.5t-143.5 -19.5h-416v164h60v449h-60v165zM426 164q34 0 51 17.5t17 56.5v302q0 39 -18 56.5t-50 17.5h-58v-450h58z" />
    <glyph glyph-name="V" unicode="V" horiz-adv-x="776" 
d="M396 614h-50l69 -395h10l69 395h-50v164h332v-164h-40l-159 -614h-364l-159 614h-40v164h382v-164z" />
    <glyph glyph-name="W" unicode="W" horiz-adv-x="1257" 
d="M193 0l-139 614h-40v164h397v-164h-65l49 -375h10l115 539h288l108 -539h10l49 375h-65v164h347v-164h-40l-129 -614h-349l-91 412h-10l-96 -412h-349z" />
    <glyph glyph-name="M" unicode="M" horiz-adv-x="1203" 
d="M24 778h478l114 -343l110 343h461v-164h-60v-450h60v-164h-400v164h60v395l-199 -559h-108l-226 561v-397h60v-164h-350v164h60v450h-60v164z" />
    <glyph glyph-name="Z" unicode="Z" horiz-adv-x="697" 
d="M330 614h-94v-82h-199v246h630v-144l-307 -470h124v82h199v-246h-661v144z" />
    <glyph glyph-name="U" unicode="U" horiz-adv-x="795" 
d="M731 279q0 -81 -22.5 -136.5t-64.5 -90.5t-101.5 -50.5t-132.5 -15.5q-75 0 -135.5 15.5t-103 50.5t-66 90.5t-23.5 136.5v335h-60v164h380v-164h-40v-386q0 -34 14.5 -49t43.5 -15t43.5 15t14.5 49v386h-40v164h353v-164h-60v-335z" />
    <glyph glyph-name="Q" unicode="Q" horiz-adv-x="812" 
d="M398 164q34 0 51 17.5t17 56.5v302q0 39 -17 56.5t-51 17.5t-51 -17.5t-17 -56.5v-302q0 -39 17 -56.5t51 -17.5zM780 419q0 -56 -12.5 -97t-30 -70t-36 -48t-30.5 -30l6 -10h119v-242q-158 0 -261.5 6.5t-171.5 21.5t-115 36q-30 12 -72.5 40t-83.5 81t-58.5 122
t-17.5 160q0 109 27 186t76.5 125t120.5 70t158 22t158 -22.5t120.5 -68.5t76.5 -116.5t27 -165.5z" />
    <glyph glyph-name="C" unicode="C" horiz-adv-x="738" 
d="M468 319h240v-259q-20 -12 -48.5 -25.5t-66 -24t-85 -17.5t-106.5 -7q-88 0 -159 22t-121 70t-77 124.5t-27 186.5q0 109 27 186t76.5 125t120.5 70t158 22q60 0 107 -7t84.5 -17.5t66 -24t50.5 -25.5v-250h-240v72q0 39 -17 56.5t-51 17.5t-51 -17.5t-17 -56.5v-302
q0 -39 17 -56.5t51 -17.5t51 17.5t17 56.5v81z" />
    <glyph glyph-name="G" unicode="G" horiz-adv-x="792" 
d="M426 399h354v-149h-50v-200q-23 -11 -53.5 -22.5t-70 -20.5t-88.5 -15t-109 -6q-90 0 -162 22t-122.5 70t-77.5 124.5t-27 186.5q0 109 27 186t77 125t122 70t161 22q61 0 110.5 -6t89 -15.5t70 -21t53.5 -22.5v-239h-250v47q0 43 -17.5 61t-55.5 18t-55.5 -18t-17.5 -61
v-292q0 -43 17.5 -61t55.5 -18t55.5 18t17.5 61v7h-54v149z" />
    <glyph glyph-name="K" unicode="K" horiz-adv-x="834" 
d="M767 614l-157 -202l172 -248h40v-164h-298l-158 274v-274h-340v164h60v450h-60v164h340v-269l183 269h258v-164h-40z" />
    <glyph glyph-name="Y" unicode="Y" horiz-adv-x="755" 
d="M395 614h-35l59 -175h10l59 175h-35v164h302v-164h-35l-193 -346v-104h60v-164h-400v164h60v104l-199 346h-36v164h383v-164z" />
    <glyph glyph-name="X" unicode="X" horiz-adv-x="826" 
d="M762 614l-107 -216l117 -234h40v-164h-318l-84 254h-20l-84 -254h-278v164h40l116 233l-107 217h-40v164h318l74 -232h20l75 232h278v-164h-40z" />
    <glyph glyph-name="J" unicode="J" horiz-adv-x="522" 
d="M105 164q34 0 54.5 21.5t20.5 72.5v356h-111v164h451v-164h-60v-347q0 -77 -23.5 -130t-64 -87t-95 -49t-115.5 -15q-45 0 -87 6.5t-61 14.5v168q22 -5 47 -8t44 -3z" />
    <glyph glyph-name="S" unicode="S" horiz-adv-x="686" 
d="M313 179q33 0 47 10t14 30q0 14 -11.5 24.5t-46.5 24.5q-74 28 -129.5 53.5t-92 56.5t-54.5 72.5t-18 100.5q0 56 17.5 100.5t57 76t105 48t161.5 16.5q87 0 164 -17.5t128 -46.5v-179h-210q0 29 -16 39.5t-39 10.5q-33 0 -47.5 -8.5t-14.5 -29.5q0 -17 15.5 -25
t46.5 -18q58 -19 109.5 -40t90.5 -52t61.5 -75t22.5 -108q0 -130 -84 -193.5t-246 -63.5q-92 0 -177 16t-136 38v198h220q0 -30 12 -44.5t50 -14.5z" />
    <glyph glyph-name="O" unicode="O" horiz-adv-x="798" 
d="M402 164q34 0 51 17.5t17 56.5v302q0 39 -17 56.5t-51 17.5t-51 -17.5t-17 -56.5v-302q0 -39 17 -56.5t51 -17.5zM784 389q0 -110 -27 -186.5t-76.5 -124.5t-120.5 -70t-158 -22t-158 22t-120.5 70t-76.5 124.5t-27 186.5q0 109 27 186t76.5 125t120.5 70t158 22t158 -22
t120.5 -70t76.5 -125t27 -186z" />
    <glyph glyph-name="at" unicode="@" horiz-adv-x="1148" 
d="M520 208q0 -29 12.5 -41.5t33.5 -12.5q22 0 40.5 13t29.5 28v230q-8 2 -22 4.5t-28 2.5q-32 0 -49 -25t-17 -59v-140zM699 -205q-38 -12 -89 -21.5t-126 -9.5q-217 0 -334.5 112t-117.5 339q0 133 47 240t127.5 182t188.5 115t230 40q114 0 204 -30.5t153 -86.5
t96.5 -135.5t33.5 -176.5q0 -99 -26 -170t-67.5 -117t-94 -68t-104.5 -22q-40 0 -68 9t-47 23.5t-30 33t-16 37.5q-11 -16 -28.5 -34t-41.5 -33.5t-53.5 -25.5t-63.5 -10q-97 0 -146.5 67t-49.5 182q0 85 26 148t71 104.5t106 62t131 20.5q63 0 131 -17t125 -43v-349
q0 -11 6.5 -16.5t14.5 -5.5q23 0 43 53.5t20 148.5q0 153 -91 227t-255 74q-92 0 -167.5 -30t-129.5 -84.5t-83.5 -130.5t-29.5 -168q0 -86 22.5 -145.5t63 -97t96.5 -54t124 -16.5q81 0 126.5 7t72.5 17v-145z" />
    <glyph glyph-name="period" unicode="." horiz-adv-x="244" 
d="M40 164h156v-164h-156v164z" />
    <glyph glyph-name="colon" unicode=":" horiz-adv-x="244" 
d="M40 519h156v-164h-156v164zM40 164h156v-164h-156v164z" />
    <glyph glyph-name="d" unicode="d" horiz-adv-x="656" 
d="M372 614h-59v164h289v-614h44v-164h-274v68q-9 -12 -24 -26.5t-34.5 -26.5t-44 -20.5t-52.5 -8.5q-104 0 -154.5 76.5t-50.5 215.5t50.5 215.5t154.5 76.5q28 0 52.5 -8.5t44 -20.5t34.5 -26.5t24 -26.5v126zM256 228q0 -34 14.5 -49t43.5 -15t43.5 15t14.5 49v100
q0 34 -14.5 49t-43.5 15t-43.5 -15t-14.5 -49v-100z" />
    <glyph glyph-name="i" unicode="i" horiz-adv-x="346" 
d="M292 164h44v-164h-318v164h44v228h-44v164h274v-392zM86 778h184v-167h-184v167z" />
    <glyph glyph-name="m" unicode="m" horiz-adv-x="1038" 
d="M364 164h44v164q0 34 -14.5 49t-43.5 15t-43.5 -15t-14.5 -49v-164h44v-164h-318v164h44v228h-44v164h274v-68q12 12 27 26.5t35.5 26.5t46.5 20.5t60 8.5t59 -7.5t43.5 -19t31.5 -26t23 -29.5q15 14 32 28.5t39.5 26.5t51 19.5t66.5 7.5q82 0 129.5 -58.5t47.5 -183.5
v-164h44v-164h-318v164h44v164q0 34 -14.5 49t-43.5 15t-43.5 -15t-14.5 -49v-164h44v-164h-318v164z" />
    <glyph glyph-name="n" unicode="n" horiz-adv-x="688" 
d="M362 164h44v164q0 34 -14.5 49t-43.5 15t-43.5 -15t-14.5 -49v-164h44v-164h-318v164h44v228h-44v164h274v-68q12 12 27 26.5t35.5 26.5t46.5 20.5t60 8.5q82 0 129.5 -58.5t47.5 -183.5v-164h44v-164h-318v164z" />
    <glyph glyph-name="h" unicode="h" horiz-adv-x="692" 
d="M364 164h44v164q0 34 -14.5 49t-43.5 15t-43.5 -15t-14.5 -49v-164h44v-164h-318v164h44v450h-44v164h274v-290q12 12 27 26.5t35.5 26.5t46.5 20.5t60 8.5q82 0 129.5 -58.5t47.5 -183.5v-164h44v-164h-318v164z" />
    <glyph glyph-name="s" unicode="s" horiz-adv-x="534" 
d="M35 156q75 -11 123 -14.5t76 -3.5q44 0 58 7t14 19q0 13 -15 19.5t-62 13.5q-104 14 -163.5 60t-59.5 130q0 39 14 72.5t45 58t79.5 38.5t116.5 14q74 0 133.5 -8.5t98.5 -21.5v-135q-48 6 -97 10t-93 4q-42 0 -59.5 -6t-17.5 -18q0 -6 3 -10.5t11.5 -8t23.5 -6t38 -4.5
q116 -11 171 -57t55 -131q0 -89 -61 -140.5t-191 -51.5q-76 0 -138.5 9t-102.5 22v139z" />
    <glyph glyph-name="b" unicode="b" horiz-adv-x="664" 
d="M292 488q9 12 23.5 26.5t34.5 26.5t44 20.5t53 8.5q104 0 154.5 -76.5t50.5 -215.5t-50.5 -215.5t-154.5 -76.5q-29 0 -53 8.5t-44 20.5t-34.5 26.5t-23.5 26.5v-68h-274v164h44v450h-44v164h274v-290zM408 328q0 34 -14.5 49t-43.5 15t-43.5 -15t-14.5 -49v-100
q0 -34 14.5 -49t43.5 -15t43.5 15t14.5 49v100z" />
    <glyph glyph-name="p" unicode="p" horiz-adv-x="650" 
d="M347 -222h-343v164h44v450h-44v164h274v-68q9 12 23.5 26.5t34.5 26.5t44 20.5t53 8.5q104 0 154.5 -76.5t50.5 -215.5t-50.5 -215.5t-154.5 -76.5q-29 0 -53 8.5t-44 20.5t-34.5 26.5t-23.5 26.5v-126h69v-164zM394 328q0 34 -14.5 49t-43.5 15t-43.5 -15t-14.5 -49
v-100q0 -34 14.5 -49t43.5 -15t43.5 15t14.5 49v100z" />
    <glyph glyph-name="q" unicode="q" horiz-adv-x="654" 
d="M372 68q-9 -12 -24 -26.5t-34.5 -26.5t-44 -20.5t-52.5 -8.5q-104 0 -154.5 76.5t-50.5 215.5t50.5 215.5t154.5 76.5q28 0 52.5 -8.5t44 -20.5t34.5 -26.5t24 -26.5v68h274v-164h-44v-614h-299v164h69v126zM256 228q0 -34 14.5 -49t43.5 -15t43.5 15t14.5 49v100
q0 34 -14.5 49t-43.5 15t-43.5 -15t-14.5 -49v-100z" />
    <glyph glyph-name="l" unicode="l" horiz-adv-x="346" 
d="M18 778h274v-614h44v-164h-318v164h44v450h-44v164z" />
    <glyph glyph-name="g" unicode="g" horiz-adv-x="656" 
d="M372 556h274v-164h-44v-352q0 -74 -18.5 -126.5t-55.5 -85.5t-91 -48.5t-124 -15.5q-66 0 -134 10t-105 23v164q42 -8 91.5 -13.5t98.5 -5.5q59 0 83.5 18.5t24.5 64.5v43q-9 -12 -24 -26.5t-34.5 -26.5t-44 -20.5t-52.5 -8.5q-104 0 -154.5 76.5t-50.5 215.5t50.5 215.5
t154.5 76.5q28 0 52.5 -8.5t44 -20.5t34.5 -26.5t24 -26.5v68zM256 228q0 -34 14.5 -49t43.5 -15t43.5 15t14.5 49v100q0 34 -14.5 49t-43.5 15t-43.5 -15t-14.5 -49v-100z" />
    <glyph glyph-name="k" unicode="k" horiz-adv-x="674" 
d="M610 392l-85 -95l96 -133h43v-164h-245l-103 192h-24v-192h-274v164h44v450h-44v164h274v-406h24l124 184h211v-164h-41z" />
    <glyph glyph-name="o" unicode="o" horiz-adv-x="620" 
d="M612 278q0 -74 -21 -128.5t-60.5 -91t-95.5 -54.5t-125 -18t-125 18t-95.5 54.5t-60.5 91t-21 128.5q0 73 21 128t60.5 91.5t95.5 54.5t125 18t125 -18t95.5 -54.5t60.5 -91.5t21 -128zM310 164q29 0 43.5 15t14.5 49v100q0 34 -14.5 49t-43.5 15t-43.5 -15t-14.5 -49
v-100q0 -34 14.5 -49t43.5 -15z" />
    <glyph glyph-name="u" unicode="u" horiz-adv-x="676" 
d="M276 228q0 -34 14.5 -49t43.5 -15t43.5 15t14.5 49v164h-54v164h284v-392h44v-164h-274v68q-12 -13 -27.5 -27t-35.5 -26t-46 -20.5t-60 -8.5q-82 0 -129.5 58.5t-47.5 183.5v164h-44v164h274v-328z" />
    <glyph glyph-name="c" unicode="c" horiz-adv-x="554" 
d="M252 242q0 -37 20.5 -57.5t68.5 -20.5q49 0 98 5t95 13v-157q-19 -7 -41 -14t-49 -12.5t-59.5 -9t-73.5 -3.5q-70 0 -126 18t-95.5 54.5t-60.5 91t-21 128.5q0 73 21 128t60.5 91.5t95.5 54.5t125 18q42 0 76.5 -6t62.5 -15t50.5 -20t40.5 -21v-198h-172v18
q0 34 -14.5 49t-43.5 15q-28 0 -43 -15t-15 -49v-86z" />
    <glyph glyph-name="e" unicode="e" horiz-adv-x="588" 
d="M310 570q77 0 128 -22.5t82 -58.5t43.5 -82t12.5 -93v-72h-324v-6q0 -36 20.5 -54t74.5 -18q66 0 121 10t91 22v-160q-18 -9 -41.5 -17.5t-53.5 -16t-68 -12t-86 -4.5q-69 0 -125 18t-95.5 54.5t-60.5 91t-21 128.5q0 73 21 128t60.5 91.5t95.5 54.5t125 18zM310 392
q-29 0 -43.5 -15t-14.5 -49v-6h116v6q0 34 -14.5 49t-43.5 15z" />
    <glyph glyph-name="z" unicode="z" horiz-adv-x="558" 
d="M254 392h-89v-36h-149v200h525v-143l-238 -249h96v56h151v-220h-540v149z" />
    <glyph glyph-name="a" unicode="a" horiz-adv-x="652" 
d="M368 68q-9 -12 -24 -26.5t-36.5 -26.5t-50 -20.5t-64.5 -8.5q-87 0 -136 40t-49 116q0 95 88.5 143.5t271.5 48.5q0 28 -18 43t-74 15q-60 0 -120.5 -9t-111.5 -20v172q51 14 125 24.5t152 10.5q80 0 133.5 -15t85.5 -45.5t45 -76t13 -105.5v-164h44v-164h-274v68z
M368 234q-62 0 -89 -8.5t-27 -29.5q0 -32 55 -32q61 0 61 64v6z" />
    <glyph glyph-name="v" unicode="v" horiz-adv-x="642" 
d="M316 556v-164h-45l54 -228h10l54 228h-45v164h294v-164h-43l-104 -392h-338l-107 392h-42v164h312z" />
    <glyph glyph-name="f" unicode="f" horiz-adv-x="380" 
d="M18 556h46q0 121 60 178.5t173 57.5q43 0 80 -7.5t62 -18.5v-157q-25 3 -41.5 4t-36.5 1q-39 0 -54 -13t-15 -45h78v-164h-78v-228h78v-164h-352v164h44v228h-44v164z" />
    <glyph glyph-name="j" unicode="j" horiz-adv-x="327" 
d="M4 556h297v-522q0 -139 -57.5 -204.5t-175.5 -65.5q-42 0 -82 6t-76 16v163q31 -4 54.5 -5.5t39.5 -1.5q32 0 49.5 17t17.5 55v378h-67v164zM95 778h184v-167h-184v167z" />
    <glyph glyph-name="r" unicode="r" horiz-adv-x="521" 
d="M18 556h274v-66l10 -3q7 14 18 29t27 27t36.5 19.5t46.5 7.5q21 0 41 -3t40 -11v-173q-33 6 -55.5 7.5t-37.5 1.5q-66 0 -96 -29.5t-30 -101.5v-97h91v-164h-365v164h44v228h-44v164z" />
    <glyph glyph-name="t" unicode="t" horiz-adv-x="447" 
d="M292 556h135v-164h-135v-164q0 -34 14.5 -49t43.5 -15q40 0 83 9v-157q-32 -12 -76.5 -21t-95.5 -9t-90.5 11t-66.5 37.5t-41.5 69.5t-14.5 107v181h-44v164q40 0 58 20.5t18 52.5v45h212v-118z" />
    <glyph glyph-name="w" unicode="w" horiz-adv-x="965" 
d="M316 556v-164h-45l36 -206h10l77 370h194l81 -370h10l33 206h-46v164h295v-164h-43l-97 -392h-298l-36 168h-10l-34 -168h-295l-102 392h-42v164h312z" />
    <glyph glyph-name="x" unicode="x" horiz-adv-x="633" 
d="M576 392l-52 -117l56 -111h43v-164h-265l-50 188h-20l-45 -188h-225v164h47l56 121l-53 107h-43v164h266l46 -183h20l42 183h218v-164h-41z" />
    <glyph glyph-name="y" unicode="y" horiz-adv-x="648" 
d="M276 228q0 -34 14.5 -49t43.5 -15t43.5 15t14.5 49v164h-54v164h284v-500q0 -150 -75.5 -221t-225.5 -71q-72 0 -139.5 9.5t-114.5 23.5v164q55 -10 104.5 -14.5t112.5 -4.5q54 0 81 16.5t27 67.5v42q-12 -13 -27.5 -27t-35.5 -26t-46 -20.5t-60 -8.5q-82 0 -129.5 58.5
t-47.5 183.5v164h-44v164h274v-328z" />
    <glyph glyph-name="acute" unicode="&#xb4;" horiz-adv-x="279" 
d="M149 611h-160v15l109 152h214v-27z" />
    <glyph glyph-name="grave" unicode="`" horiz-adv-x="267" 
d="M-42 751v27h214l109 -152v-15h-160z" />
    <glyph glyph-name="dieresis" unicode="&#xa8;" horiz-adv-x="452" 
d="M15 778h167v-167h-167v167zM271 778h166v-167h-166v167z" />
    <glyph glyph-name="circumflex" unicode="&#x2c6;" horiz-adv-x="431" 
d="M220 676h-9l-62 -65h-149v15l117 152h197l117 -152v-15h-149z" />
    <glyph glyph-name="tilde" unicode="&#x2dc;" horiz-adv-x="497" 
d="M41 622q0 39 5 71t18.5 54t37 34t59.5 12q28 0 55 -7t53 -16t51 -16t51 -7q23 0 31 12t8 23h56q0 -39 -4 -70.5t-16 -54t-34.5 -34.5t-58.5 -12q-26 0 -52.5 7.5t-54 16.5t-55 16.5t-53.5 7.5q-23 0 -33.5 -13t-10.5 -24h-53z" />
    <glyph glyph-name="one" unicode="1" horiz-adv-x="529" 
d="M14 727l222 51h193v-614h84v-164h-469v164h96v450h-126v113z" />
    <glyph glyph-name="two" unicode="2" horiz-adv-x="649" 
d="M12 153q78 66 143 125.5t112 110t73 89t26 62.5q0 39 -17 56.5t-51 17.5t-51 -17.5t-17 -56.5v-50h-200v237q26 13 57 23.5t73 20.5t89.5 15.5t96.5 5.5q142 0 212 -57.5t70 -169.5q0 -61 -28.5 -116.5t-72.5 -106t-96.5 -95t-100.5 -83.5h122v57h195v-221h-635v153z" />
    <glyph glyph-name="four" unicode="4" horiz-adv-x="694" 
d="M139 778h237l-123 -395h90v137h259v-137h80v-152h-80v-55h61v-176h-447v176h127v55h-325v171z" />
    <glyph glyph-name="seven" unicode="7" horiz-adv-x="630" 
d="M10 778h628v-152q-64 -104 -98 -174.5t-58 -127t-40.5 -110.5t-26.5 -108.5t-10 -105.5h-283q0 78 23.5 156.5t59.5 153t79.5 146.5t84.5 128h-149v-92h-210v286z" />
    <glyph glyph-name="five" unicode="5" horiz-adv-x="651" 
d="M65 778h532v-194h-332l-9 -104q26 15 65 24.5t71 9.5q58 0 104 -18t77 -50.5t47.5 -78t16.5 -100.5q0 -139 -82 -215t-232 -76q-55 0 -99.5 6.5t-80.5 17t-63.5 23.5t-48.5 25v201h232q0 -35 10.5 -54t43.5 -19q29 0 40.5 21t11.5 69q0 51 -11.5 74t-42.5 23
q-30 0 -41 -18.5t-11 -41.5h-190l-45 69z" />
    <glyph glyph-name="less" unicode="&#x3c;" horiz-adv-x="499" 
d="M434 69l-398 161v184l398 162h21v-156l-271 -92v-11l271 -93v-155h-21z" />
    <glyph glyph-name="zero" unicode="0" horiz-adv-x="732" 
d="M366 164q34 0 51 17.5t17 56.5v302q0 39 -17 56.5t-51 17.5t-51 -17.5t-17 -56.5v-302q0 -39 17 -56.5t51 -17.5zM718 389q0 -110 -25 -186.5t-70.5 -124.5t-110.5 -70t-146 -22t-146 22t-110.5 70t-70.5 124.5t-25 186.5q0 109 25 186t70.5 125t110.5 70t146 22t146 -22
t110.5 -70t70.5 -125t25 -186z" />
    <glyph glyph-name="three" unicode="3" horiz-adv-x="623" 
d="M218 473h71q38 0 54.5 18t16.5 49q0 39 -17 56.5t-51 17.5t-51 -17.5t-17 -56.5v-17h-200v204q18 10 43.5 21.5t60.5 21.5t80 16t102 6q141 0 213.5 -58t72.5 -164q0 -34 -9 -60.5t-22.5 -46.5t-30 -35t-30.5 -26v-10q16 -10 34.5 -24t34.5 -34t27 -48t11 -65
q0 -53 -19 -96.5t-57.5 -74.5t-97 -47.5t-137.5 -16.5q-54 0 -96.5 6.5t-76 16t-59 22t-44.5 24.5v211h200v-28q0 -39 17 -56.5t51 -17.5t51 18t17 66q0 37 -16.5 55.5t-53.5 18.5h-72v151z" />
    <glyph glyph-name="eight" unicode="8" horiz-adv-x="700" 
d="M10 212q0 46 14 78.5t35 55t45.5 35.5t45.5 19v10q-19 6 -40 17.5t-38 30.5t-28.5 46.5t-11.5 65.5q0 46 20 86.5t60 70.5t99.5 47.5t138.5 17.5t138.5 -17.5t99 -47.5t59 -70.5t19.5 -86.5q0 -38 -12 -66t-29.5 -47t-38 -30t-37.5 -17v-10q21 -6 45.5 -19t45.5 -34.5
t35.5 -53t14.5 -75.5q0 -53 -22.5 -95.5t-65.5 -73t-106.5 -47t-145.5 -16.5t-145.5 16.5t-106.5 46.5t-65.5 71.5t-22.5 91.5zM428 238q0 48 -19.5 68t-58.5 20t-58.5 -20t-19.5 -68q0 -39 19.5 -56.5t58.5 -17.5t58.5 17.5t19.5 56.5zM282 540q0 -27 17 -44.5t51 -17.5
t51 17.5t17 44.5q0 39 -17 56.5t-51 17.5t-51 -17.5t-17 -56.5z" />
    <glyph glyph-name="six" unicode="6" horiz-adv-x="693" 
d="M636 581q-35 11 -86 22t-111 11q-72 0 -104.5 -38.5t-32.5 -98.5v-29q30 11 70 19.5t77 8.5q45 0 87.5 -10t75.5 -35.5t53 -68.5t20 -109q0 -139 -82 -203t-233 -64q-81 0 -146 21t-110.5 64t-70.5 108.5t-25 154.5q0 123 27.5 210t77.5 142t119 80.5t153 25.5
q43 0 79 -4.5t66 -12t53.5 -16.5t42.5 -17v-161zM367 319q-12 0 -29 -3t-36 -10v-68q0 -39 17 -56.5t51 -17.5t51 17.5t17 56.5q0 81 -71 81z" />
    <glyph glyph-name="nine" unicode="9" horiz-adv-x="693" 
d="M54 197q39 -13 93.5 -23t123.5 -10q61 0 91.5 35.5t30.5 101.5v21q-27 -10 -63 -19t-84 -9q-45 0 -87.5 10t-75.5 35.5t-53 69t-20 111.5q0 142 81.5 207t233.5 65q83 0 148.5 -21t110.5 -64t69 -108.5t24 -154.5q0 -127 -25.5 -214.5t-74.5 -141.5t-119 -78t-158 -24
q-85 0 -144.5 16.5t-101.5 33.5v161zM328 451q19 0 35.5 4t29.5 9v76q0 39 -17 56.5t-51 17.5t-51 -18t-17 -66q0 -79 71 -79z" />
    <glyph glyph-name="slash" unicode="/" horiz-adv-x="423" 
d="M301 842h142v-32l-320 -961h-143v32z" />
    <glyph glyph-name="backslash" unicode="\" horiz-adv-x="424" 
d="M444 -119v-32h-144l-320 961v32h143z" />
    <glyph glyph-name="comma" unicode="," horiz-adv-x="245" 
d="M41 164h156v-164l-71 -161h-86l52 161h-51v164z" />
    <glyph glyph-name="semicolon" unicode=";" horiz-adv-x="245" 
d="M41 164h156v-164l-71 -161h-86l52 161h-51v164zM41 519h156v-164h-156v164z" />
    <glyph glyph-name="asciitilde" unicode="~" horiz-adv-x="618" 
d="M30 239q0 26 4.5 57.5t20 59.5t45.5 46.5t82 18.5q45 0 79 -7.5t65.5 -16t64.5 -16t76 -7.5q40 0 52.5 12t12.5 24h56q0 -27 -3.5 -59t-18 -59.5t-43.5 -45.5t-80 -18q-45 0 -79 7.5t-66 16.5t-66 16.5t-79 7.5q-21 0 -34.5 -4t-21.5 -9.5t-11 -12t-3 -11.5h-53z" />
    <glyph glyph-name="question" unicode="?" horiz-adv-x="614" 
d="M141 211v54q0 42 13.5 72t34.5 52t44.5 38.5t44.5 32t34.5 32t13.5 38.5q0 17 -13 28.5t-47 11.5q-29 0 -58 -5.5t-56 -14t-51.5 -19t-45.5 -20.5l-53 204q27 13 60.5 26.5t73 24.5t85.5 18.5t97 7.5q67 0 121 -16.5t91.5 -46t57.5 -69t20 -85.5q0 -59 -17 -96t-42 -62.5
t-55 -44t-55 -39t-42 -49t-17 -73.5h-239zM141 164h238v-164h-238v164z" />
    <glyph glyph-name="questiondown" unicode="&#xbf;" horiz-adv-x="614" 
d="M473 345v-54q0 -42 -13.5 -72t-34.5 -52t-44.5 -38.5t-44.5 -32t-34.5 -32t-13.5 -38.5q0 -17 13 -28.5t47 -11.5q59 0 113 19t98 40l53 -204q-54 -28 -134 -52.5t-182 -24.5q-68 0 -121.5 16.5t-91 46t-57.5 69t-20 85.5q0 59 17 96t42 62.5t55 44t55 39t42 49t17 73.5
h239zM473 392h-238v164h238v-164z" />
    <glyph glyph-name="quotedbl" unicode="&#x22;" horiz-adv-x="403" 
d="M71 778h134l-77 -222h-100zM244 778h133l-76 -222h-100z" />
    <glyph glyph-name="quoteright" unicode="&#x2019;" horiz-adv-x="210" 
d="M30 778h140v-128l-67 -102h-67l43 102h-49v128z" />
    <glyph glyph-name="quoteleft" unicode="&#x2018;" horiz-adv-x="210" 
d="M180 548h-140v128l67 102h67l-43 -102h49v-128z" />
    <glyph glyph-name="quotedblright" unicode="&#x201d;" horiz-adv-x="386" 
d="M30 778h140v-128l-67 -102h-67l43 102h-49v128zM206 778h140v-128l-67 -102h-67l43 102h-49v128z" />
    <glyph glyph-name="quotedblleft" unicode="&#x201c;" horiz-adv-x="386" 
d="M356 548h-140v128l67 102h67l-43 -102h49v-128zM180 548h-140v128l67 102h67l-43 -102h49v-128z" />
    <glyph glyph-name="exclam" unicode="!" horiz-adv-x="343" 
d="M53 153h231v-153h-231v153zM20 727v51h299v-51l-47 -540h-206z" />
    <glyph glyph-name="exclamdown" unicode="&#xa1;" horiz-adv-x="343" 
d="M290 403h-231v153h231v-153zM323 -171v-51h-299v51l47 520h206z" />
    <glyph glyph-name="mu" unicode="&#xb5;" horiz-adv-x="674" 
d="M44 392h-44v164h274v-328q0 -34 14.5 -49t43.5 -15t43.5 15t14.5 49v164h-54v164h284v-392h44v-164h-274v68q-9 -12 -24 -26.5t-34.5 -26.5t-43.5 -20.5t-51 -8.5l37 -208h-230v614z" />
    <glyph glyph-name="parenleft" unicode="(" horiz-adv-x="350" 
d="M36 328q0 111 21 199.5t53 157t71 118.5t74 85l109 -50q-24 -37 -49 -86.5t-46 -112.5t-34 -140.5t-13 -170.5q0 -94 13.5 -171.5t34 -139.5t45.5 -110.5t49 -83.5l-109 -52q-35 33 -73.5 82t-71 117.5t-53.5 157t-21 200.5z" />
    <glyph glyph-name="parenright" unicode=")" horiz-adv-x="350" 
d="M314 328q0 -112 -21.5 -201t-54 -157t-71 -117.5t-72.5 -81.5l-109 52q23 36 48 84t46 110.5t34.5 139.5t13.5 171q0 93 -13.5 170t-34.5 140t-46 112.5t-48 87.5l109 50q34 -34 73 -84t71 -119t53.5 -157.5t21.5 -199.5z" />
    <glyph glyph-name="ampersand" unicode="&#x26;" horiz-adv-x="787" 
d="M428 540q0 39 -17 56.5t-51 17.5t-48.5 -15t-14.5 -38q0 -11 6 -21t15.5 -19t21 -17.5t22.5 -17.5l163 -123q2 12 3 24t1 24v18h241v-167h-58l-9 -33l90 -68l-122 -161l-73 56q-37 -28 -97.5 -49t-151.5 -21q-175 0 -264.5 59.5t-89.5 164.5q0 37 12 67.5t32.5 55
t47 43.5t55.5 33q-51 38 -81.5 79t-30.5 101q0 49 24 87t67 63.5t101.5 39t127.5 13.5q56 0 100.5 -7t79.5 -18t61.5 -24t46.5 -25v-192h-210v14zM360 164q46 0 75 18l-127 98q-19 -10 -30 -26.5t-11 -37.5q0 -26 19.5 -39t73.5 -13z" />
    <glyph glyph-name="plus" unicode="+" horiz-adv-x="576" 
d="M205 426v165h167v-165h164v-167h-164v-165h-167v165h-165v167h165z" />
    <glyph glyph-name="hyphen" unicode="-" horiz-adv-x="389" 
d="M34 237v164h321v-164h-321z" />
    <glyph glyph-name="quotesingle" unicode="'" horiz-adv-x="254" 
d="M71 778h157l-77 -222h-123z" />
    <glyph glyph-name="asterisk" unicode="*" horiz-adv-x="409" 
d="M247 667l74 62l11 7l61 -103l-12 -7l-101 -33l101 -33l12 -9l-61 -100l-85 67l18 -94v-15h-120v15l18 94l-75 -60l-12 -7l-60 100l11 9l100 33l-100 33l-11 7l60 103l12 -7l75 -62l-18 94v17h120v-17z" />
    <glyph glyph-name="multiply" unicode="&#xd7;" horiz-adv-x="570" 
d="M285 209l-129 -129l-124 123l129 129l-129 130l124 124l129 -130l130 130l123 -124l-130 -130l130 -129l-123 -123z" />
    <glyph glyph-name="greater" unicode="&#x3e;" horiz-adv-x="499" 
d="M44 69v155l271 93v11l-271 92v156h21l398 -162v-184l-398 -161h-21z" />
    <glyph glyph-name="equal" unicode="=" horiz-adv-x="495" 
d="M455 289v-167h-415v167h415zM455 553v-166h-415v166h415z" />
    <glyph glyph-name="bracketleft" unicode="[" horiz-adv-x="325" 
d="M44 873l267 23l12 -129l-111 -23v-878l111 -23l-12 -129l-267 23v1136z" />
    <glyph glyph-name="bracketright" unicode="]" horiz-adv-x="325" 
d="M281 -263l-267 -23l-12 129l111 23v878l-111 23l12 129l267 -23v-1136z" />
    <glyph glyph-name="plusminus" unicode="&#xb1;" horiz-adv-x="577" 
d="M206 582v166h167v-166h164v-167h-164v-164h-167v164h-166v167h166zM517 200v-158h-460v158h460z" />
    <glyph glyph-name="bullet" unicode="&#x2022;" horiz-adv-x="343" 
d="M35 384q0 28 10.5 53t29.5 43.5t43.5 29t53.5 10.5q28 0 52.5 -10.5t43 -29t29.5 -43.5t11 -53t-11 -52.5t-29.5 -43t-43 -29t-52.5 -10.5q-29 0 -53.5 10.5t-43.5 29t-29.5 43t-10.5 52.5z" />
    <glyph glyph-name="endash" unicode="&#x2013;" horiz-adv-x="601" 
d="M24 212v151h553v-151h-553z" />
    <glyph glyph-name="emdash" unicode="&#x2014;" horiz-adv-x="987" 
d="M24 212v151h939v-151h-939z" />
    <glyph glyph-name="asciicircum" unicode="^" horiz-adv-x="413" 
d="M211 664h-9l-62 -142h-126v15l117 241h151l117 -241v-15h-126z" />
    <glyph glyph-name="underscore" unicode="_" horiz-adv-x="632" 
d="M16 -72h600v-94h-600v94z" />
    <glyph glyph-name="braceleft" unicode="{" horiz-adv-x="299" 
d="M22 358q9 0 19 3t18 11t13.5 21.5t5.5 34.5q0 44 -4 76.5t-9 63t-9 63.5t-4 78q0 51 21.5 79.5t54 43t71 18t72.5 3.5v-89q-21 0 -37.5 -12.5t-16.5 -52.5q0 -39 3.5 -68.5t8 -58t8.5 -59.5t4 -73q0 -60 -22.5 -91.5t-54.5 -45.5q32 -14 54.5 -45t22.5 -91q0 -42 -4 -73
t-8.5 -59.5t-8 -58t-3.5 -68.5q0 -21 5 -33.5t13 -20t17.5 -10t18.5 -2.5v-89q-34 0 -72.5 3.5t-71 18t-54 43.5t-21.5 80q0 44 4 77t9 63.5t9 63.5t4 77q0 21 -5.5 34.5t-13.5 21.5t-18 11t-19 3v109z" />
    <glyph glyph-name="braceright" unicode="}" horiz-adv-x="299" 
d="M277 249q-9 0 -18.5 -3t-17.5 -11t-13.5 -21.5t-5.5 -34.5q0 -44 4 -77t8.5 -63.5t8.5 -63.5t4 -77q0 -51 -21.5 -80t-54 -43.5t-71 -18t-72.5 -3.5v89q9 0 19 2.5t18 10t13 20t5 33.5q0 39 -4 68.5t-8.5 58t-8.5 59.5t-4 73q0 60 23 91t55 45q-32 14 -55 45.5t-23 91.5
q0 42 4 73t8.5 59.5t8.5 58t4 68.5q0 40 -17 52.5t-38 12.5v89q34 0 72.5 -3.5t71 -18t54 -43t21.5 -79.5q0 -45 -4 -78t-8.5 -63.5t-8.5 -63t-4 -76.5q0 -21 5.5 -34.5t13.5 -21.5t17.5 -11t18.5 -3v-109z" />
    <glyph glyph-name="bar" unicode="|" horiz-adv-x="255" 
d="M62 -327v1267h131v-1267h-131z" />
    <glyph glyph-name="cent" unicode="&#xa2;" horiz-adv-x="554" 
d="M234 -104v96q-106 18 -166 88.5t-60 197.5q0 126 60 197t166 89v93h131v-90q64 -8 105.5 -24.5t69.5 -34.5v-198h-172v18q0 34 -14.5 49t-43.5 15q-28 0 -43 -15t-15 -49v-86q0 -37 20.5 -57.5t68.5 -20.5q49 0 98 5t95 13v-157q-29 -11 -69 -21.5t-100 -15.5v-92h-131z
" />
    <glyph glyph-name="caron" unicode="&#x2c7;" horiz-adv-x="431" 
d="M282 778h149v-15l-117 -152h-197l-117 152v15h149l62 -65h9z" />
    <glyph glyph-name="sterling" unicode="&#xa3;" horiz-adv-x="616" 
d="M25 440h48q-10 22 -16.5 52t-6.5 75t17.5 85.5t53.5 71.5t91.5 49.5t132.5 18.5q75 0 138 -15.5t108 -41.5v-166h-181v21q-2 8 -14 18t-41 10q-33 0 -49 -16t-16 -54q0 -28 6.5 -54.5t14.5 -53.5h166v-125h-147q-1 -35 -8.5 -65t-20.5 -53q20 -8 40.5 -14t49.5 -6
q23 0 37.5 5t23 13t11.5 16.5t3 16.5h146q0 -38 -6.5 -80.5t-28 -78.5t-63.5 -59.5t-112 -23.5q-35 0 -59.5 5.5t-46 11.5t-43.5 11.5t-51 5.5q-40 0 -62 -10t-30 -20l-86 86q13 16 28 37t28 47t21.5 56.5t8.5 66.5v16t-1 16h-84v125z" />
    <glyph glyph-name="percent" unicode="%" horiz-adv-x="850" 
d="M629 778h142v-32l-550 -746h-143v32zM487 187q0 57 12.5 95.5t35.5 62t55.5 33.5t72.5 10q39 0 71 -10.5t54.5 -34t35 -62t12.5 -94.5q0 -57 -12.5 -95.5t-35 -62t-54.5 -33.5t-71 -10q-40 0 -72.5 10t-55.5 33.5t-35.5 62t-12.5 95.5zM627 190q0 -32 1.5 -51.5t5 -30
t10 -13.5t16.5 -3t17 4t10.5 15t5 30t1.5 49t-1 49t-5 30t-10.5 15t-17.5 4q-10 0 -16.5 -4t-10 -15t-5 -30t-1.5 -49zM14 591q0 57 12.5 95.5t35.5 62t55.5 33.5t72.5 10q39 0 71 -10.5t54.5 -34t35 -62t12.5 -94.5q0 -57 -12.5 -95.5t-35 -62t-54.5 -33.5t-71 -10
q-40 0 -72.5 10t-55.5 33.5t-35.5 62t-12.5 95.5zM154 594q0 -32 1.5 -51.5t5 -30t10 -13.5t16.5 -3q11 0 17.5 4t10.5 15t5 30t1 49t-1 49t-5 30t-10.5 15t-17.5 4q-10 0 -16.5 -4t-10 -15t-5 -30t-1.5 -49z" />
    <glyph glyph-name="numbersign" unicode="#" horiz-adv-x="732" 
d="M398 193h-119l-23 -193h-143v22l21 171h-112l16 139h113l13 105h-122l16 139h124l25 202h142v-22l-23 -180h120l25 202h142v-22l-23 -180h120l-16 -139h-121l-13 -105h130l-16 -139h-131l-23 -193h-143v22zM296 332h119l13 105h-119z" />
    <glyph glyph-name="cedilla" unicode="&#xb8;" horiz-adv-x="567" 
d="M251 0h95v-39q45 0 73 -23t28 -71q0 -54 -37.5 -83.5t-103.5 -29.5q-35 0 -66.5 5.5t-56.5 12.5v71q20 -5 49 -9.5t63 -4.5q18 0 26 9t8 23t-8 23t-26 9h-44v107z" />
    <glyph glyph-name="ring" unicode="&#x2da;" horiz-adv-x="186" 
d="M-29 725q0 25 9.5 47.5t26 39t38.5 26t48 9.5q25 0 47.5 -9.5t39 -26t26 -39t9.5 -47.5q0 -26 -9.5 -48t-26 -38.5t-39 -26t-47.5 -9.5q-26 0 -48 9.5t-38.5 26t-26 38.5t-9.5 48zM53 725q0 -17 11.5 -28.5t28.5 -11.5q16 0 27.5 11.5t11.5 28.5q0 16 -11.5 27.5
t-27.5 11.5q-17 0 -28.5 -11.5t-11.5 -27.5z" />
    <glyph glyph-name="paragraph" unicode="&#xb6;" horiz-adv-x="759" 
d="M523 -160v760q-20 2 -36.5 6t-33.5 9v-775h-163v461q-71 0 -123 18t-86 50.5t-50.5 78t-16.5 99.5q0 45 16 89t49 78.5t82.5 56t116.5 21.5q54 0 94 -8t75.5 -17t72 -17t84.5 -8q54 0 75.5 15t21.5 35h56q0 -23 -2 -46.5t-9 -45.5t-21 -41.5t-38 -34.5v-784h-164z" />
    <glyph glyph-name="thorn" unicode="&#xfe;" horiz-adv-x="652" 
d="M6 778h274v-290q9 12 23.5 26.5t34.5 26.5t44 20.5t53 8.5q104 0 154.5 -76.5t50.5 -215.5t-50.5 -215.5t-154.5 -76.5q-29 0 -53 8.5t-44 20.5t-34.5 26.5t-23.5 26.5v-126h69v-164h-343v164h44v672h-44v164zM396 328q0 34 -14.5 49t-43.5 15t-43.5 -15t-14.5 -49v-100
q0 -34 14.5 -49t43.5 -15t43.5 15t14.5 49v100z" />
    <glyph glyph-name="Thorn" unicode="&#xde;" horiz-adv-x="762" 
d="M28 778h400v-164h-60v-45h118q51 0 94 -8t74.5 -27t49.5 -50.5t18 -79.5q0 -50 -18 -83.5t-49.5 -54t-74.5 -29t-94 -8.5h-118v-65h96v-164h-436v164h60v450h-60v164zM392 331q20 0 34 10.5t14 33.5v16q0 23 -13.5 33.5t-34.5 10.5h-24v-104h24z" />
    <glyph glyph-name="eth" unicode="&#xf0;" horiz-adv-x="606" 
d="M231 693q-14 15 -27.5 26t-24.5 19v21l114 71q29 -19 55 -38.5t49 -41.5l122 42h16v-92l-67 -23q139 -166 144 -385v-14q0 -74 -21 -128.5t-60.5 -91t-95.5 -54.5t-125 -18t-125 18t-95.5 54.5t-60.5 91t-21 128.5q0 73 21 128t60.5 91.5t95.5 54.5t125 18h5
q-11 26 -24 47l-116 -39h-16v91zM310 164q29 0 43.5 15t14.5 49v100q0 34 -14.5 49t-43.5 15t-43.5 -15t-14.5 -49v-100q0 -34 14.5 -49t43.5 -15z" />
    <glyph glyph-name="periodcentered" unicode="&#xb7;" horiz-adv-x="211" 
d="M22 472h156v-152h-156v152z" />
    <glyph glyph-name="brokenbar" unicode="&#xa6;" horiz-adv-x="255" 
d="M193 208v-535h-131v535h131zM62 406v534h131v-534h-131z" />
    <glyph glyph-name="section" unicode="&#xa7;" horiz-adv-x="604" 
d="M76 76q84 -13 112.5 -15.5t51.5 -2.5q44 0 58 7.5t14 21.5q0 7 -3 12t-11.5 9t-23.5 8.5t-39 10.5q-46 11 -85 26t-67.5 37t-44.5 51.5t-16 70.5q0 87 64 136q-20 38 -20 85q0 39 14 72.5t45 58t79.5 38.5t116.5 14t118 -10t79 -20v-135q-36 5 -74 9.5t-81 4.5
q-42 0 -59.5 -6.5t-17.5 -20.5q0 -7 3 -12t11.5 -8.5t23.5 -7.5t38 -8q102 -20 159 -62.5t57 -119.5q0 -42 -15 -80t-44 -63q15 -33 15 -79q0 -89 -61 -140.5t-191 -51.5q-71 0 -123.5 10t-82.5 21v139zM398 299q0 17 -15.5 29t-66.5 23q-47 9 -70 9t-30 -8t-7 -22
q0 -20 18.5 -31t74.5 -21q38 -7 61 -7t29 7.5t6 20.5z" />
    <glyph glyph-name="germandbls" unicode="&#xdf;" horiz-adv-x="707" 
d="M342 156l33 -9q14 -4 29 -6.5t27 -2.5q26 0 34 7t8 19q0 14 -13 24.5t-39 25.5q-51 29 -74.5 61t-23.5 80q0 31 12 60t26 55.5t26 50.5t12 46q0 25 -12 36t-42 11t-41.5 -12.5t-11.5 -46.5v-555h-274v164h44v228h-44v164h46q0 66 17 111t52 72.5t90 40t130 12.5
q58 0 107 -10t84 -32t54.5 -57t19.5 -84q0 -44 -13.5 -74t-29 -52.5t-29 -40.5t-13.5 -37q0 -8 2 -14.5t9 -13t19.5 -15t33.5 -20.5q19 -12 37 -26.5t31.5 -35t21.5 -48t8 -64.5q0 -39 -12.5 -72.5t-37.5 -58t-63.5 -38t-90.5 -13.5q-50 0 -87.5 10t-61.5 21v139z" />
    <glyph glyph-name="quotesinglbase" unicode="&#x201a;" horiz-adv-x="210" 
d="M30 128h140v-128l-67 -102h-67l43 102h-49v128z" />
    <glyph glyph-name="quotedblbase" unicode="&#x201e;" horiz-adv-x="386" 
d="M30 128h140v-128l-67 -102h-67l43 102h-49v128zM206 128h140v-128l-67 -102h-67l43 102h-49v128z" />
    <glyph glyph-name="currency" unicode="&#xa4;" horiz-adv-x="584" 
d="M8 160l80 80q-5 20 -7 41.5t-2 45.5q0 47 9 85l-80 81l108 108l65 -66q45 21 111 21t111 -21l66 66l107 -108l-80 -80q10 -34 10 -86q0 -49 -10 -88l80 -79l-107 -107l-67 66q-44 -21 -110 -21q-67 0 -110 21l-66 -66zM222 327q0 -57 16 -81.5t54 -24.5t54.5 24.5
t16.5 81.5t-16.5 81.5t-54.5 24.5t-54 -24.5t-16 -81.5z" />
    <glyph glyph-name="onesuperior" unicode="&#xb9;" horiz-adv-x="261" 
d="M10 774l90 37h108v-275h41v-107h-229v107h47v170h-57v68z" />
    <glyph glyph-name="twosuperior" unicode="&#xb2;" horiz-adv-x="314" 
d="M24 533q20 16 42 35.5t40 39t30 39t12 36.5t-9.5 23.5t-26.5 6.5q-13 0 -33.5 -3t-47.5 -10v96q19 10 54 18.5t75 8.5q63 0 98.5 -29.5t35.5 -78.5t-29 -94.5t-80 -87.5h119v-104h-280v104z" />
    <glyph glyph-name="threesuperior" unicode="&#xb3;" horiz-adv-x="264" 
d="M54 662q21 0 34 2t20 5.5t9 9t2 11.5q0 10 -6.5 16.5t-28.5 6.5q-14 0 -30 -1t-33 -3v93q15 7 44 14t63 7q55 0 90.5 -28t35.5 -73q0 -58 -48 -95q26 -16 41 -38.5t15 -54.5q0 -27 -10.5 -48t-28.5 -35.5t-42.5 -22t-52.5 -7.5q-59 0 -110 18v100q33 -6 66 -6
q22 0 29 7.5t7 20.5q0 7 -2 12.5t-9 9.5t-20 6t-35 2v71z" />
    <glyph glyph-name="onequarter" unicode="&#xbc;" horiz-adv-x="803" 
d="M528 778h142v-32l-464 -746h-143v32zM576 181h55v81h127v-81h39v-96h-39v-85h-127v85h-172v82l48 214h112zM-3 741l90 37h108v-275h41v-107h-229v107h47v170h-57v68z" />
    <glyph glyph-name="onehalf" unicode="&#xbd;" horiz-adv-x="803" 
d="M528 778h142v-32l-464 -746h-143v32zM492 104q20 16 42 35.5t40 39t30 39t12 36.5t-9.5 23.5t-26.5 6.5q-13 0 -27 -2.5t-26 -4.5l-28 -6v96q18 9 49.5 18t79.5 9q63 0 98.5 -29.5t35.5 -78.5t-29 -94.5t-80 -87.5h119v-104h-280v104zM-3 741l90 37h108v-275h41v-107
h-229v107h47v170h-57v68z" />
    <glyph glyph-name="threequarters" unicode="&#xbe;" horiz-adv-x="803" 
d="M528 778h142v-32l-464 -746h-143v32zM576 181h55v81h127v-81h39v-96h-39v-85h-127v85h-172v82l48 214h112zM40 631q21 0 34 2t20 5.5t9 9t2 11.5q0 10 -6 16.5t-29 6.5q-14 0 -25.5 -0.5t-19.5 -1.5l-18 -2v93q14 7 41 14t66 7q57 0 91.5 -28t34.5 -73q0 -58 -48 -95
q26 -16 41 -38.5t15 -54.5q0 -27 -10.5 -48t-28.5 -35.5t-42.5 -22t-52.5 -7.5q-52 0 -80 9l-30 9v100l19 -3q18 -3 47 -3q23 0 29.5 7.5t6.5 20.5q0 7 -2 12.5t-9 9.5t-20 6t-35 2v71z" />
    <glyph glyph-name="guilsinglleft" unicode="&#x2039;" horiz-adv-x="299" 
d="M210 284v-15l79 -208h-131l-116 192v47l116 192h131z" />
    <glyph glyph-name="guilsinglright" unicode="&#x203a;" horiz-adv-x="299" 
d="M10 492h131l116 -192v-47l-116 -192h-131l79 208v15z" />
    <glyph glyph-name="guillemotleft" unicode="&#xab;" horiz-adv-x="520" 
d="M210 284v-15l79 -208h-131l-116 192v47l116 192h131zM431 284v-15l79 -208h-131l-116 192v47l116 192h131z" />
    <glyph glyph-name="guillemotright" unicode="&#xbb;" horiz-adv-x="520" 
d="M231 492h131l116 -192v-47l-116 -192h-131l79 208v15zM10 492h131l116 -192v-47l-116 -192h-131l79 208v15z" />
    <glyph glyph-name="A" unicode="A" horiz-adv-x="806" 
d="M408 164h60l-17 80h-135l-16 -80h60v-164h-342v164h40l169 614h364l169 -614h40v-164h-392v164zM338 350h92l-41 199h-10z" />
    <glyph glyph-name="nonbreakingspace" unicode="&#xa0;" horiz-adv-x="300" 
 />
    <glyph glyph-name="ae" unicode="&#xe6;" horiz-adv-x="946" 
d="M668 570q77 0 128 -22.5t82 -58.5t43.5 -82t12.5 -93v-72h-324v-6q0 -36 20.5 -54t74.5 -18q66 0 121 10t91 22v-160q-18 -9 -41.5 -17.5t-53.5 -16t-68 -12t-86 -4.5q-163 0 -239 102q-14 -16 -36 -34t-51.5 -33t-66.5 -25t-82 -10q-87 0 -136 40t-49 116
q0 93 86.5 142.5t273.5 49.5q0 28 -18 43t-74 15q-60 0 -120.5 -9t-111.5 -20v172q46 11 112.5 23t164.5 12q57 0 101 -11.5t77 -32.5q74 44 169 44zM668 392q-29 0 -43.5 -15t-14.5 -49v-6h116v6q0 34 -14.5 49t-43.5 15zM368 234q-54 0 -85 -7t-31 -31q0 -32 55 -32
q61 0 61 64v6z" />
    <glyph glyph-name="oe" unicode="&#x153;" horiz-adv-x="948" 
d="M670 570q77 0 128 -22.5t82 -58.5t43.5 -82t12.5 -93v-72h-324v-6q0 -36 20.5 -54t74.5 -18q66 0 121 10t91 22v-160q-18 -9 -41.5 -17.5t-53.5 -16t-68 -12t-86 -4.5q-69 0 -125 18q-30 9 -55 24q-25 -15 -55 -24q-56 -18 -125 -18t-125 18t-95.5 54.5t-60.5 91
t-21 128.5q0 73 21 128t60.5 91.5t95.5 54.5t125 18t125 -18q29 -10 54 -25q26 15 56 25q56 18 125 18zM310 164q29 0 43.5 15t14.5 49v100q0 34 -14.5 49t-43.5 15t-43.5 -15t-14.5 -49v-100q0 -34 14.5 -49t43.5 -15zM670 392q-29 0 -43.5 -15t-14.5 -49v-6h116v6
q0 34 -14.5 49t-43.5 15z" />
    <glyph glyph-name="AE" unicode="&#xc6;" horiz-adv-x="1126" 
d="M882 614h-121v-158h88v-114h-88v-178h121v158h224v-322h-675v164h50v80h-137l-29 -80h60v-164h-377v164h40l259 614h809v-302h-224v138zM386 360h95v231h-10z" />
    <glyph glyph-name="OE" unicode="&#x152;" horiz-adv-x="1115" 
d="M871 614h-121v-158h88v-114h-88v-178h121v158h224v-322h-562q-64 -14 -131 -14q-87 0 -158 22t-120.5 70t-76.5 124.5t-27 186.5q0 109 27 186t76.5 125t120.5 70t158 22q66 0 130 -14h563v-302h-224v138zM402 164q34 0 51 17.5t17 56.5v302q0 39 -17 56.5t-51 17.5
t-51 -17.5t-17 -56.5v-302q0 -39 17 -56.5t51 -17.5z" />
    <glyph glyph-name="Eth" unicode="&#xd0;" horiz-adv-x="826" 
d="M28 778h416q77 0 143.5 -19.5t115.5 -65.5t77 -120.5t28 -183.5q0 -110 -28 -184t-77 -120t-115.5 -65.5t-143.5 -19.5h-416v164h60v147h-71v164h71v138h-60v165zM426 164q34 0 51 17.5t17 56.5v302q0 39 -18 56.5t-50 17.5h-58v-139h61v-164h-61v-147h58z" />
    <glyph glyph-name="ij" unicode="&#x133;" horiz-adv-x="653" 
d="M292 164h44v-164h-318v164h44v228h-44v164h274v-392zM86 778h184v-167h-184v167zM330 556h297v-522q0 -139 -57.5 -204.5t-175.5 -65.5q-42 0 -82 6t-76 16v163q31 -4 54.5 -5.5t39.5 -1.5q32 0 49.5 17t17.5 55v378h-67v164zM421 778h184v-167h-184v167z" />
    <glyph glyph-name="IJ" unicode="&#x132;" horiz-adv-x="934" 
d="M530 164q27 0 44.5 22.5t17.5 71.5v356h-101v164h441v-164h-60v-336q0 -79 -23 -134.5t-62.5 -90.5t-92 -51t-110.5 -16q-55 0 -88 6t-50 15v168l27 -6q12 -3 26.5 -4t30.5 -1zM24 778h400v-164h-60v-450h60v-164h-400v164h60v450h-60v164z" />
    <glyph glyph-name="oslash" unicode="&#xf8;" horiz-adv-x="620" 
d="M612 278q0 -74 -21 -128.5t-60.5 -91t-95.5 -54.5t-125 -18h-17l-18 -107h-57v26l14 88q-24 4 -47 11q-56 18 -95.5 54.5t-60.5 91t-21 128.5q0 73 21 128t60.5 91.5t95.5 54.5t125 18h18l18 104h57v-26l-14 -85q24 -4 46 -11q56 -18 95.5 -54.5t60.5 -91.5t21 -128z
M266 377q-14 -15 -14 -49v-100q0 -31 12 -47l35 210q-21 -2 -33 -14zM353 179q15 15 15 49v100q0 29 -11 45l-35 -209q20 3 31 15z" />
    <glyph glyph-name="Oslash" unicode="&#xd8;" horiz-adv-x="798" 
d="M784 389q0 -110 -27 -186.5t-76.5 -124.5t-120.5 -70t-158 -22q-16 0 -32 1l-17 -101h-71v32l13 78q-27 4 -51 12q-71 22 -120.5 70t-76.5 124.5t-27 186.5q0 109 27 186t76.5 125t120.5 70t158 22q13 0 25 -1l15 88h71v-32l-11 -63q30 -6 58 -14q71 -22 120.5 -70
t76.5 -125t27 -186zM402 164q34 0 51 17.5t17 56.5v302q0 17 -3 29l-68 -405h3zM351 596q-17 -17 -17 -56v-302v-8l64 384q-31 -1 -47 -18z" />
    <glyph glyph-name="dotaccentcmb" unicode="&#x307;" horiz-adv-x="334" 
d="M67 778h184v-167h-184v167z" />
    <glyph glyph-name="dotlessj" unicode="&#x237;" horiz-adv-x="327" 
d="M4 556h297v-522q0 -139 -57.5 -204.5t-175.5 -65.5q-41 0 -81.5 6t-76.5 16v163q31 -4 55.5 -5.5t38.5 -1.5q32 0 49.5 17t17.5 55v378h-67v164z" />
    <glyph glyph-name="dotlessi" unicode="&#x131;" horiz-adv-x="346" 
d="M292 164h44v-164h-318v164h44v228h-44v164h274v-392z" />
    <glyph glyph-name="aacute" unicode="&#xe1;" horiz-adv-x="652" 
d="M368 68q-9 -12 -24 -26.5t-36.5 -26.5t-50 -20.5t-64.5 -8.5q-87 0 -136 40t-49 116q0 95 88.5 143.5t271.5 48.5q0 28 -18 43t-74 15q-60 0 -120.5 -9t-111.5 -20v172q51 14 125 24.5t152 10.5q80 0 133.5 -15t85.5 -45.5t45 -76t13 -105.5v-164h44v-164h-274v68z
M368 234q-62 0 -89 -8.5t-27 -29.5q0 -32 55 -32q61 0 61 64v6zM366 611h-160v15l109 152h214v-27z" />
    <glyph glyph-name="agrave" unicode="&#xe0;" horiz-adv-x="652" 
d="M368 68q-9 -12 -24 -26.5t-36.5 -26.5t-50 -20.5t-64.5 -8.5q-87 0 -136 40t-49 116q0 95 88.5 143.5t271.5 48.5q0 28 -18 43t-74 15q-60 0 -120.5 -9t-111.5 -20v172q51 14 125 24.5t152 10.5q80 0 133.5 -15t85.5 -45.5t45 -76t13 -105.5v-164h44v-164h-274v68z
M368 234q-62 0 -89 -8.5t-27 -29.5q0 -32 55 -32q61 0 61 64v6zM100 751v27h214l109 -152v-15h-160z" />
    <glyph glyph-name="adieresis" unicode="&#xe4;" horiz-adv-x="652" 
d="M368 68q-9 -12 -24 -26.5t-36.5 -26.5t-50 -20.5t-64.5 -8.5q-87 0 -136 40t-49 116q0 95 88.5 143.5t271.5 48.5q0 28 -18 43t-74 15q-60 0 -120.5 -9t-111.5 -20v172q51 14 125 24.5t152 10.5q80 0 133.5 -15t85.5 -45.5t45 -76t13 -105.5v-164h44v-164h-274v68z
M368 234q-62 0 -89 -8.5t-27 -29.5q0 -32 55 -32q61 0 61 64v6zM116 778h167v-167h-167v167zM372 778h166v-167h-166v167z" />
    <glyph glyph-name="acircumflex" unicode="&#xe2;" horiz-adv-x="652" 
d="M368 68q-9 -12 -24 -26.5t-36.5 -26.5t-50 -20.5t-64.5 -8.5q-87 0 -136 40t-49 116q0 95 88.5 143.5t271.5 48.5q0 28 -18 43t-74 15q-60 0 -120.5 -9t-111.5 -20v172q51 14 125 24.5t152 10.5q80 0 133.5 -15t85.5 -45.5t45 -76t13 -105.5v-164h44v-164h-274v68z
M368 234q-62 0 -89 -8.5t-27 -29.5q0 -32 55 -32q61 0 61 64v6zM330 676h-9l-62 -65h-149v15l117 152h197l117 -152v-15h-149z" />
    <glyph glyph-name="atilde" unicode="&#xe3;" horiz-adv-x="652" 
d="M368 68q-9 -12 -24 -26.5t-36.5 -26.5t-50 -20.5t-64.5 -8.5q-87 0 -136 40t-49 116q0 95 88.5 143.5t271.5 48.5q0 28 -18 43t-74 15q-60 0 -120.5 -9t-111.5 -20v172q51 14 125 24.5t152 10.5q80 0 133.5 -15t85.5 -45.5t45 -76t13 -105.5v-164h44v-164h-274v68z
M368 234q-62 0 -89 -8.5t-27 -29.5q0 -32 55 -32q61 0 61 64v6zM115 622q0 39 5 71t18.5 54t37 34t59.5 12q28 0 55 -7t53 -16t51 -16t51 -7q23 0 31 12t8 23h56q0 -39 -4 -70.5t-16 -54t-34.5 -34.5t-58.5 -12q-26 0 -52.5 7.5t-54 16.5t-55 16.5t-53.5 7.5
q-23 0 -33.5 -13t-10.5 -24h-53z" />
    <glyph glyph-name="aring" unicode="&#xe5;" horiz-adv-x="652" 
d="M368 68q-9 -12 -24 -26.5t-36.5 -26.5t-50 -20.5t-64.5 -8.5q-87 0 -136 40t-49 116q0 95 88.5 143.5t271.5 48.5q0 28 -18 43t-74 15q-60 0 -120.5 -9t-111.5 -20v172q51 14 125 24.5t152 10.5q80 0 133.5 -15t85.5 -45.5t45 -76t13 -105.5v-164h44v-164h-274v68z
M368 234q-62 0 -89 -8.5t-27 -29.5q0 -32 55 -32q61 0 61 64v6zM195 725q0 25 9.5 47.5t26 39t38.5 26t48 9.5q25 0 47.5 -9.5t39 -26t26 -39t9.5 -47.5q0 -26 -9.5 -48t-26 -38.5t-39 -26t-47.5 -9.5q-26 0 -48 9.5t-38.5 26t-26 38.5t-9.5 48zM277 725q0 -17 11.5 -28.5
t28.5 -11.5q16 0 27.5 11.5t11.5 28.5q0 16 -11.5 27.5t-27.5 11.5q-17 0 -28.5 -11.5t-11.5 -27.5z" />
    <glyph glyph-name="eacute" unicode="&#xe9;" horiz-adv-x="588" 
d="M310 570q77 0 128 -22.5t82 -58.5t43.5 -82t12.5 -93v-72h-324v-6q0 -36 20.5 -54t74.5 -18q66 0 121 10t91 22v-160q-18 -9 -41.5 -17.5t-53.5 -16t-68 -12t-86 -4.5q-69 0 -125 18t-95.5 54.5t-60.5 91t-21 128.5q0 73 21 128t60.5 91.5t95.5 54.5t125 18zM310 392
q-29 0 -43.5 -15t-14.5 -49v-6h116v6q0 34 -14.5 49t-43.5 15zM354 611h-160v15l109 152h214v-27z" />
    <glyph glyph-name="egrave" unicode="&#xe8;" horiz-adv-x="588" 
d="M310 570q77 0 128 -22.5t82 -58.5t43.5 -82t12.5 -93v-72h-324v-6q0 -36 20.5 -54t74.5 -18q66 0 121 10t91 22v-160q-18 -9 -41.5 -17.5t-53.5 -16t-68 -12t-86 -4.5q-69 0 -125 18t-95.5 54.5t-60.5 91t-21 128.5q0 73 21 128t60.5 91.5t95.5 54.5t125 18zM310 392
q-29 0 -43.5 -15t-14.5 -49v-6h116v6q0 34 -14.5 49t-43.5 15zM88 751v27h214l109 -152v-15h-160z" />
    <glyph glyph-name="edieresis" unicode="&#xeb;" horiz-adv-x="588" 
d="M310 570q77 0 128 -22.5t82 -58.5t43.5 -82t12.5 -93v-72h-324v-6q0 -36 20.5 -54t74.5 -18q66 0 121 10t91 22v-160q-18 -9 -41.5 -17.5t-53.5 -16t-68 -12t-86 -4.5q-69 0 -125 18t-95.5 54.5t-60.5 91t-21 128.5q0 73 21 128t60.5 91.5t95.5 54.5t125 18zM310 392
q-29 0 -43.5 -15t-14.5 -49v-6h116v6q0 34 -14.5 49t-43.5 15zM104 778h167v-167h-167v167zM360 778h166v-167h-166v167z" />
    <glyph glyph-name="ecircumflex" unicode="&#xea;" horiz-adv-x="588" 
d="M310 570q77 0 128 -22.5t82 -58.5t43.5 -82t12.5 -93v-72h-324v-6q0 -36 20.5 -54t74.5 -18q66 0 121 10t91 22v-160q-18 -9 -41.5 -17.5t-53.5 -16t-68 -12t-86 -4.5q-69 0 -125 18t-95.5 54.5t-60.5 91t-21 128.5q0 73 21 128t60.5 91.5t95.5 54.5t125 18zM310 392
q-29 0 -43.5 -15t-14.5 -49v-6h116v6q0 34 -14.5 49t-43.5 15zM318 676h-9l-62 -65h-149v15l117 152h197l117 -152v-15h-149z" />
    <glyph glyph-name="igrave" unicode="&#xec;" horiz-adv-x="346" 
d="M292 164h44v-164h-318v164h44v228h-44v164h274v-392zM-51 751v27h214l109 -152v-15h-160z" />
    <glyph glyph-name="idieresis" unicode="&#xef;" horiz-adv-x="346" 
d="M292 164h44v-164h-318v164h44v228h-44v164h274v-392zM-35 778h167v-167h-167v167zM221 778h166v-167h-166v167z" />
    <glyph glyph-name="icircumflex" unicode="&#xee;" horiz-adv-x="346" 
d="M292 164h44v-164h-318v164h44v228h-44v164h274v-392zM179 676h-9l-62 -65h-149v15l117 152h197l117 -152v-15h-149z" />
    <glyph glyph-name="itilde" unicode="&#x129;" horiz-adv-x="346" 
d="M292 164h44v-164h-318v164h44v228h-44v164h274v-392zM-36 622q0 39 5 71t18.5 54t37 34t59.5 12q28 0 55 -7t53 -16t51 -16t51 -7q23 0 31 12t8 23h56q0 -39 -4 -70.5t-16 -54t-34.5 -34.5t-58.5 -12q-26 0 -52.5 7.5t-54 16.5t-55 16.5t-53.5 7.5q-23 0 -33.5 -13
t-10.5 -24h-53z" />
    <glyph glyph-name="iacute" unicode="&#xed;" horiz-adv-x="346" 
d="M292 164h44v-164h-318v164h44v228h-44v164h274v-392zM214 611h-160v15l109 152h214v-27z" />
    <glyph glyph-name="jcircumflex" unicode="&#x135;" horiz-adv-x="327" 
d="M4 556h297v-522q0 -139 -57.5 -204.5t-175.5 -65.5q-41 0 -81.5 6t-76.5 16v163q31 -4 55.5 -5.5t38.5 -1.5q32 0 49.5 17t17.5 55v378h-67v164zM185 676h-9l-62 -65h-149v15l117 152h197l117 -152v-15h-149z" />
    <glyph glyph-name="nacute" unicode="&#x144;" horiz-adv-x="688" 
d="M362 164h44v164q0 34 -14.5 49t-43.5 15t-43.5 -15t-14.5 -49v-164h44v-164h-318v164h44v228h-44v164h274v-68q12 12 27 26.5t35.5 26.5t46.5 20.5t60 8.5q82 0 129.5 -58.5t47.5 -183.5v-164h44v-164h-318v164zM412 611h-160v15l109 152h214v-27z" />
    <glyph glyph-name="ntilde" unicode="&#xf1;" horiz-adv-x="688" 
d="M362 164h44v164q0 34 -14.5 49t-43.5 15t-43.5 -15t-14.5 -49v-164h44v-164h-318v164h44v228h-44v164h274v-68q12 12 27 26.5t35.5 26.5t46.5 20.5t60 8.5q82 0 129.5 -58.5t47.5 -183.5v-164h44v-164h-318v164zM161 622q0 39 5 71t18.5 54t37 34t59.5 12q28 0 55 -7
t53 -16t51 -16t51 -7q23 0 31 12t8 23h56q0 -39 -4 -70.5t-16 -54t-34.5 -34.5t-58.5 -12q-26 0 -52.5 7.5t-54 16.5t-55 16.5t-53.5 7.5q-23 0 -33.5 -13t-10.5 -24h-53z" />
    <glyph glyph-name="oacute" unicode="&#xf3;" horiz-adv-x="620" 
d="M612 278q0 -74 -21 -128.5t-60.5 -91t-95.5 -54.5t-125 -18t-125 18t-95.5 54.5t-60.5 91t-21 128.5q0 73 21 128t60.5 91.5t95.5 54.5t125 18t125 -18t95.5 -54.5t60.5 -91.5t21 -128zM310 164q29 0 43.5 15t14.5 49v100q0 34 -14.5 49t-43.5 15t-43.5 -15t-14.5 -49
v-100q0 -34 14.5 -49t43.5 -15zM359 611h-160v15l109 152h214v-27z" />
    <glyph glyph-name="ograve" unicode="&#xf2;" horiz-adv-x="620" 
d="M612 278q0 -74 -21 -128.5t-60.5 -91t-95.5 -54.5t-125 -18t-125 18t-95.5 54.5t-60.5 91t-21 128.5q0 73 21 128t60.5 91.5t95.5 54.5t125 18t125 -18t95.5 -54.5t60.5 -91.5t21 -128zM310 164q29 0 43.5 15t14.5 49v100q0 34 -14.5 49t-43.5 15t-43.5 -15t-14.5 -49
v-100q0 -34 14.5 -49t43.5 -15zM93 751v27h214l109 -152v-15h-160z" />
    <glyph glyph-name="odieresis" unicode="&#xf6;" horiz-adv-x="620" 
d="M612 278q0 -74 -21 -128.5t-60.5 -91t-95.5 -54.5t-125 -18t-125 18t-95.5 54.5t-60.5 91t-21 128.5q0 73 21 128t60.5 91.5t95.5 54.5t125 18t125 -18t95.5 -54.5t60.5 -91.5t21 -128zM310 164q29 0 43.5 15t14.5 49v100q0 34 -14.5 49t-43.5 15t-43.5 -15t-14.5 -49
v-100q0 -34 14.5 -49t43.5 -15zM109 778h167v-167h-167v167zM365 778h166v-167h-166v167z" />
    <glyph glyph-name="ocircumflex" unicode="&#xf4;" horiz-adv-x="620" 
d="M612 278q0 -74 -21 -128.5t-60.5 -91t-95.5 -54.5t-125 -18t-125 18t-95.5 54.5t-60.5 91t-21 128.5q0 73 21 128t60.5 91.5t95.5 54.5t125 18t125 -18t95.5 -54.5t60.5 -91.5t21 -128zM310 164q29 0 43.5 15t14.5 49v100q0 34 -14.5 49t-43.5 15t-43.5 -15t-14.5 -49
v-100q0 -34 14.5 -49t43.5 -15zM323 676h-9l-62 -65h-149v15l117 152h197l117 -152v-15h-149z" />
    <glyph glyph-name="otilde" unicode="&#xf5;" horiz-adv-x="620" 
d="M612 278q0 -74 -21 -128.5t-60.5 -91t-95.5 -54.5t-125 -18t-125 18t-95.5 54.5t-60.5 91t-21 128.5q0 73 21 128t60.5 91.5t95.5 54.5t125 18t125 -18t95.5 -54.5t60.5 -91.5t21 -128zM310 164q29 0 43.5 15t14.5 49v100q0 34 -14.5 49t-43.5 15t-43.5 -15t-14.5 -49
v-100q0 -34 14.5 -49t43.5 -15zM108 622q0 39 5 71t18.5 54t37 34t59.5 12q28 0 55 -7t53 -16t51 -16t51 -7q23 0 31 12t8 23h56q0 -39 -4 -70.5t-16 -54t-34.5 -34.5t-58.5 -12q-26 0 -52.5 7.5t-54 16.5t-55 16.5t-53.5 7.5q-23 0 -33.5 -13t-10.5 -24h-53z" />
    <glyph glyph-name="rcaron" unicode="&#x159;" horiz-adv-x="521" 
d="M18 556h274v-66l10 -3q7 14 18 29t27 27t36.5 19.5t46.5 7.5q21 0 41 -3t40 -11v-173q-33 6 -55.5 7.5t-37.5 1.5q-66 0 -96 -29.5t-30 -101.5v-97h91v-164h-365v164h44v228h-44v164zM346 778h149v-15l-117 -152h-197l-117 152v15h149l62 -65h9z" />
    <glyph glyph-name="uacute" unicode="&#xfa;" horiz-adv-x="676" 
d="M276 228q0 -34 14.5 -49t43.5 -15t43.5 15t14.5 49v164h-54v164h284v-392h44v-164h-274v68q-12 -13 -27.5 -27t-35.5 -26t-46 -20.5t-60 -8.5q-82 0 -129.5 58.5t-47.5 183.5v164h-44v164h274v-328zM367 611h-160v15l109 152h214v-27z" />
    <glyph glyph-name="ugrave" unicode="&#xf9;" horiz-adv-x="676" 
d="M276 228q0 -34 14.5 -49t43.5 -15t43.5 15t14.5 49v164h-54v164h284v-392h44v-164h-274v68q-12 -13 -27.5 -27t-35.5 -26t-46 -20.5t-60 -8.5q-82 0 -129.5 58.5t-47.5 183.5v164h-44v164h274v-328zM101 751v27h214l109 -152v-15h-160z" />
    <glyph glyph-name="udieresis" unicode="&#xfc;" horiz-adv-x="676" 
d="M276 228q0 -34 14.5 -49t43.5 -15t43.5 15t14.5 49v164h-54v164h284v-392h44v-164h-274v68q-12 -13 -27.5 -27t-35.5 -26t-46 -20.5t-60 -8.5q-82 0 -129.5 58.5t-47.5 183.5v164h-44v164h274v-328zM117 778h167v-167h-167v167zM373 778h166v-167h-166v167z" />
    <glyph glyph-name="ucircumflex" unicode="&#xfb;" horiz-adv-x="676" 
d="M276 228q0 -34 14.5 -49t43.5 -15t43.5 15t14.5 49v164h-54v164h284v-392h44v-164h-274v68q-12 -13 -27.5 -27t-35.5 -26t-46 -20.5t-60 -8.5q-82 0 -129.5 58.5t-47.5 183.5v164h-44v164h274v-328zM331 676h-9l-62 -65h-149v15l117 152h197l117 -152v-15h-149z" />
    <glyph glyph-name="yacute" unicode="&#xfd;" horiz-adv-x="648" 
d="M276 228q0 -34 14.5 -49t43.5 -15t43.5 15t14.5 49v164h-54v164h284v-500q0 -150 -75.5 -221t-225.5 -71q-72 0 -139.5 9.5t-114.5 23.5v164q55 -10 104.5 -14.5t112.5 -4.5q54 0 81 16.5t27 67.5v42q-12 -13 -27.5 -27t-35.5 -26t-46 -20.5t-60 -8.5q-82 0 -129.5 58.5
t-47.5 183.5v164h-44v164h274v-328zM371 611h-160v15l109 152h214v-27z" />
    <glyph glyph-name="ydieresis" unicode="&#xff;" horiz-adv-x="648" 
d="M276 228q0 -34 14.5 -49t43.5 -15t43.5 15t14.5 49v164h-54v164h284v-500q0 -150 -75.5 -221t-225.5 -71q-72 0 -139.5 9.5t-114.5 23.5v164q55 -10 104.5 -14.5t112.5 -4.5q54 0 81 16.5t27 67.5v42q-12 -13 -27.5 -27t-35.5 -26t-46 -20.5t-60 -8.5q-82 0 -129.5 58.5
t-47.5 183.5v164h-44v164h274v-328zM121 778h167v-167h-167v167zM377 778h166v-167h-166v167z" />
    <glyph glyph-name="lslash" unicode="&#x142;" horiz-adv-x="372" 
d="M36 778h274v-240l108 55v-121l-108 -55v-253h44v-164h-318v164h44v136l-115 -58v121l115 58v193h-44v164z" />
    <glyph glyph-name="ldot" unicode="&#x140;" horiz-adv-x="557" 
d="M18 778h274v-614h44v-164h-318v164h44v450h-44v164zM368 472h156v-152h-156v152z" />
    <glyph glyph-name="Ccedilla" unicode="&#xc7;" horiz-adv-x="738" 
d="M468 319h240v-259q-20 -12 -48.5 -25.5t-66 -24t-85.5 -17.5q-33 -5 -73 -6v-27q45 0 73 -23t28 -71q0 -54 -37.5 -83.5t-103.5 -29.5q-35 0 -66.5 5.5t-56.5 12.5v71q20 -5 49 -9.5t63 -4.5q18 0 26 9t8 23t-8 23t-26 9h-44v97q-52 5 -97 19q-71 22 -121 70t-77 124.5
t-27 186.5q0 109 27 186t76.5 125t120.5 70t158 22q60 0 107 -7t84.5 -17.5t66 -24t50.5 -25.5v-250h-240v72q0 39 -17 56.5t-51 17.5t-51 -17.5t-17 -56.5v-302q0 -39 17 -56.5t51 -17.5t51 17.5t17 56.5v81z" />
    <glyph glyph-name="ccedilla" unicode="&#xe7;" horiz-adv-x="554" 
d="M252 242q0 -37 20.5 -57.5t68.5 -20.5q49 0 98 5t95 13v-157q-19 -7 -41 -14t-49 -12.5t-60 -8.5q-20 -2 -44 -3v-26q45 0 73 -23t28 -71q0 -54 -37.5 -83.5t-103.5 -29.5q-35 0 -66.5 5.5t-56.5 12.5v71q20 -5 49 -9.5t63 -4.5q18 0 26 9t8 23t-8 23t-26 9h-44v98
q-32 4 -60 13q-56 18 -95.5 54.5t-60.5 91t-21 128.5q0 73 21 128t60.5 91.5t95.5 54.5t125 18q42 0 76.5 -6t62.5 -15t50.5 -20t40.5 -21v-198h-172v18q0 34 -14.5 49t-43.5 15q-28 0 -43 -15t-15 -49v-86z" />
    <glyph glyph-name="hbar" unicode="&#x127;" horiz-adv-x="692" 
d="M364 164h44v164q0 34 -14.5 49t-43.5 15t-43.5 -15t-14.5 -49v-164h44v-164h-318v164h44v450h-94v79h50v85h274v-85h161v-79h-161v-126q12 12 27 26.5t35.5 26.5t46.5 20.5t60 8.5q82 0 129.5 -58.5t47.5 -183.5v-164h44v-164h-318v164z" />
    <glyph glyph-name="commaaccent" unicode="&#xf6c3;" horiz-adv-x="300" 
d="M75 -78h150v-142l-55 -113h-86l32 113h-41v142z" />
    <glyph glyph-name="kcommaaccent" unicode="&#x137;" horiz-adv-x="674" 
d="M610 392l-85 -95l96 -133h43v-164h-245l-103 192h-24v-192h-274v164h44v450h-44v164h274v-406h24l124 184h211v-164h-41zM255 -78h150v-142l-55 -113h-86l32 113h-41v142z" />
    <glyph glyph-name="rcommaaccent" unicode="&#x157;" horiz-adv-x="521" 
d="M18 556h274v-66l10 -3q7 14 18 29t27 27t36.5 19.5t46.5 7.5q21 0 41 -3t40 -11v-173q-33 6 -55.5 7.5t-37.5 1.5q-66 0 -96 -29.5t-30 -101.5v-97h91v-164h-365v164h44v228h-44v164zM106 -78h150v-142l-55 -113h-86l32 113h-41v142z" />
    <glyph glyph-name="Lslash" unicode="&#x141;" horiz-adv-x="671" 
d="M26 778h432v-164h-92v-127l225 86v-121l-225 -86v-202h90v92h199v-256h-629v164h60v95l-98 -37v121l98 37v234h-60v164z" />
    <glyph glyph-name="Ldotaccent" unicode="&#x13f;" horiz-adv-x="644" 
d="M5 778h432v-164h-92v-450h90v92h199v-256h-629v164h60v450h-60v164zM478 472h156v-152h-156v152z" />
    <glyph glyph-name="kgreenlandic" unicode="&#x138;" horiz-adv-x="674" 
d="M610 392l-85 -95l96 -133h43v-164h-245l-103 192h-24v-192h-274v164h44v228h-44v164h274v-184h24l124 184h211v-164h-41z" />
    <glyph glyph-name="Euro" unicode="&#x20ac;" horiz-adv-x="723" 
d="M527 614q-60 0 -93 -26t-42 -78h276l-14 -79h-265v-76h252l-14 -79h-235q8 -57 40 -84.5t95 -27.5q37 0 80.5 10.5t81.5 24.5v-153q-17 -10 -40.5 -20.5t-53 -19.5t-66 -14.5t-80.5 -5.5q-74 0 -135.5 16t-108.5 51t-78 90t-44 133h-71v79h64q-1 8 -1 16.5v17.5v21t1 21
h-64v79h73q14 76 47 129.5t82.5 87.5t114 49.5t141.5 15.5q43 0 79 -4.5t65.5 -12t53 -16.5t41.5 -17l-27 -153q-32 10 -71.5 17.5t-83.5 7.5z" />
    <glyph glyph-name="acute.cap" horiz-adv-x="296" 
d="M180 841h-197v15l109 96h251v-26z" />
    <glyph glyph-name="grave.cap" horiz-adv-x="267" 
d="M-55 926v26h251l109 -96v-15h-197z" />
    <glyph glyph-name="dieresis.cap" horiz-adv-x="470" 
d="M-6 952h187v-111h-187v111zM280 952h186v-111h-186v111z" />
    <glyph glyph-name="circumflex.cap" horiz-adv-x="431" 
d="M227 898h-23l-79 -57h-168v15l127 96h263l127 -96v-15h-168z" />
    <glyph glyph-name="tilde.cap" horiz-adv-x="497" 
d="M-3 836q0 43 6 75.5t20.5 53.5t39.5 31.5t64 10.5q38 0 72 -5.5t66 -12.5t62 -12.5t60 -5.5q35 0 47 12t12 23h56q0 -43 -5 -75t-19 -53.5t-38 -32t-61 -10.5q-34 0 -68 6t-67.5 13t-66 13t-63.5 6q-34 0 -49 -13t-15 -24h-53z" />
    <glyph glyph-name="caron.cap" horiz-adv-x="431" 
d="M306 952h168v-15l-127 -96h-263l-127 96v15h168l79 -57h23z" />
    <glyph glyph-name="ring.cap" horiz-adv-x="186" 
d="M-22 914q0 25 9.5 47.5t26 39t38.5 26t48 9.5q25 0 47.5 -9.5t39 -26t26 -39t9.5 -47.5q0 -26 -9.5 -48t-26 -38.5t-39 -26t-47.5 -9.5q-26 0 -48 9.5t-38.5 26t-26 38.5t-9.5 48zM60 914q0 -17 11.5 -28.5t28.5 -11.5q16 0 27.5 11.5t11.5 28.5q0 16 -11.5 27.5
t-27.5 11.5q-17 0 -28.5 -11.5t-11.5 -27.5z" />
    <glyph glyph-name="dotaccentcmb.cap" horiz-adv-x="334" 
d="M67 959h184v-127h-184v127z" />
    <glyph glyph-name="Aacute" unicode="&#xc1;" horiz-adv-x="806" 
d="M408 164h60l-17 80h-135l-16 -80h60v-164h-342v164h40l169 614h364l169 -614h40v-164h-392v164zM338 350h92l-41 199h-10zM480 841h-197v15l109 96h251v-26z" />
    <glyph glyph-name="Agrave" unicode="&#xc0;" horiz-adv-x="806" 
d="M408 164h60l-17 80h-135l-16 -80h60v-164h-342v164h40l169 614h364l169 -614h40v-164h-392v164zM338 350h92l-41 199h-10zM150 926v26h251l109 -96v-15h-197z" />
    <glyph glyph-name="Adieresis" unicode="&#xc4;" horiz-adv-x="806" 
d="M408 164h60l-17 80h-135l-16 -80h60v-164h-342v164h40l169 614h364l169 -614h40v-164h-392v164zM338 350h92l-41 199h-10zM159 952h187v-111h-187v111zM445 952h186v-111h-186v111z" />
    <glyph glyph-name="Acircumflex" unicode="&#xc2;" horiz-adv-x="806" 
d="M408 164h60l-17 80h-135l-16 -80h60v-164h-342v164h40l169 614h364l169 -614h40v-164h-392v164zM338 350h92l-41 199h-10zM408 898h-23l-79 -57h-168v15l127 96h263l127 -96v-15h-168z" />
    <glyph glyph-name="Atilde" unicode="&#xc3;" horiz-adv-x="806" 
d="M408 164h60l-17 80h-135l-16 -80h60v-164h-342v164h40l169 614h364l169 -614h40v-164h-392v164zM338 350h92l-41 199h-10zM143 836q0 43 6 75.5t20.5 53.5t39.5 31.5t64 10.5q38 0 72 -5.5t66 -12.5t62 -12.5t60 -5.5q35 0 47 12t12 23h56q0 -43 -5 -75t-19 -53.5
t-38 -32t-61 -10.5q-34 0 -68 6t-67.5 13t-66 13t-63.5 6q-34 0 -49 -13t-15 -24h-53z" />
    <glyph glyph-name="Aring" unicode="&#xc5;" horiz-adv-x="806" 
d="M408 164h60l-17 80h-135l-16 -80h60v-164h-342v164h40l169 614h364l169 -614h40v-164h-392v164zM338 350h92l-41 199h-10zM276 914q0 25 9.5 47.5t26 39t38.5 26t48 9.5q25 0 47.5 -9.5t39 -26t26 -39t9.5 -47.5q0 -26 -9.5 -48t-26 -38.5t-39 -26t-47.5 -9.5
q-26 0 -48 9.5t-38.5 26t-26 38.5t-9.5 48zM358 914q0 -17 11.5 -28.5t28.5 -11.5q16 0 27.5 11.5t11.5 28.5q0 16 -11.5 27.5t-27.5 11.5q-17 0 -28.5 -11.5t-11.5 -27.5z" />
    <glyph glyph-name="Eacute" unicode="&#xc9;" horiz-adv-x="735" 
d="M487 614h-121v-158h88v-114h-88v-178h121v158h224v-322h-685v164h60v450h-60v164h685v-302h-224v138zM481 841h-197v15l109 96h251v-26z" />
    <glyph glyph-name="Egrave" unicode="&#xc8;" horiz-adv-x="735" 
d="M487 614h-121v-158h88v-114h-88v-178h121v158h224v-322h-685v164h60v450h-60v164h685v-302h-224v138zM151 926v26h251l109 -96v-15h-197z" />
    <glyph glyph-name="Edieresis" unicode="&#xcb;" horiz-adv-x="735" 
d="M487 614h-121v-158h88v-114h-88v-178h121v158h224v-322h-685v164h60v450h-60v164h685v-302h-224v138zM160 952h187v-111h-187v111zM446 952h186v-111h-186v111z" />
    <glyph glyph-name="Ecircumflex" unicode="&#xca;" horiz-adv-x="735" 
d="M487 614h-121v-158h88v-114h-88v-178h121v158h224v-322h-685v164h60v450h-60v164h685v-302h-224v138zM409 898h-23l-79 -57h-168v15l127 96h263l127 -96v-15h-168z" />
    <glyph glyph-name="Iacute" unicode="&#xcd;" horiz-adv-x="438" 
d="M24 778h400v-164h-60v-450h60v-164h-400v164h60v450h-60v164zM317 841h-197v15l109 96h251v-26z" />
    <glyph glyph-name="Igrave" unicode="&#xcc;" horiz-adv-x="438" 
d="M24 778h400v-164h-60v-450h60v-164h-400v164h60v450h-60v164zM-13 926v26h251l109 -96v-15h-197z" />
    <glyph glyph-name="Idieresis" unicode="&#xcf;" horiz-adv-x="438" 
d="M24 778h400v-164h-60v-450h60v-164h-400v164h60v450h-60v164zM-4 952h187v-111h-187v111zM282 952h186v-111h-186v111z" />
    <glyph glyph-name="Icircumflex" unicode="&#xce;" horiz-adv-x="438" 
d="M24 778h400v-164h-60v-450h60v-164h-400v164h60v450h-60v164zM245 898h-23l-79 -57h-168v15l127 96h263l127 -96v-15h-168z" />
    <glyph glyph-name="Itilde" unicode="&#x128;" horiz-adv-x="438" 
d="M24 778h400v-164h-60v-450h60v-164h-400v164h60v450h-60v164zM-19 836q0 43 6 75.5t20.5 53.5t39.5 31.5t64 10.5q38 0 72 -5.5t66 -12.5t62 -12.5t60 -5.5q35 0 47 12t12 23h56q0 -43 -5 -75t-19 -53.5t-38 -32t-61 -10.5q-34 0 -68 6t-67.5 13t-66 13t-63.5 6
q-34 0 -49 -13t-15 -24h-53z" />
    <glyph glyph-name="Jcircumflex" unicode="&#x134;" horiz-adv-x="522" 
d="M105 164q34 0 54.5 21.5t20.5 72.5v356h-111v164h451v-164h-60v-347q0 -77 -23.5 -130t-64 -87t-95 -49t-115.5 -15q-45 0 -87 6.5t-61 14.5v168q22 -5 47 -8t44 -3zM313 898h-23l-79 -57h-168v15l127 96h263l127 -96v-15h-168z" />
    <glyph glyph-name="Nacute" unicode="&#x143;" horiz-adv-x="952" 
d="M596 778h350v-164h-60v-614h-281l-293 451v-287h60v-164h-350v164h60v450h-60v164h371l263 -402v238h-60v164zM582 841h-197v15l109 96h251v-26z" />
    <glyph glyph-name="Ntilde" unicode="&#xd1;" horiz-adv-x="952" 
d="M596 778h350v-164h-60v-614h-281l-293 451v-287h60v-164h-350v164h60v450h-60v164h371l263 -402v238h-60v164zM245 836q0 43 6 75.5t20.5 53.5t39.5 31.5t64 10.5q38 0 72 -5.5t66 -12.5t62 -12.5t60 -5.5q35 0 47 12t12 23h56q0 -43 -5 -75t-19 -53.5t-38 -32t-61 -10.5
q-34 0 -68 6t-67.5 13t-66 13t-63.5 6q-34 0 -49 -13t-15 -24h-53z" />
    <glyph glyph-name="Oacute" unicode="&#xd3;" horiz-adv-x="798" 
d="M402 164q34 0 51 17.5t17 56.5v302q0 39 -17 56.5t-51 17.5t-51 -17.5t-17 -56.5v-302q0 -39 17 -56.5t51 -17.5zM784 389q0 -110 -27 -186.5t-76.5 -124.5t-120.5 -70t-158 -22t-158 22t-120.5 70t-76.5 124.5t-27 186.5q0 109 27 186t76.5 125t120.5 70t158 22t158 -22
t120.5 -70t76.5 -125t27 -186zM491 841h-197v15l109 96h251v-26z" />
    <glyph glyph-name="Ograve" unicode="&#xd2;" horiz-adv-x="798" 
d="M402 164q34 0 51 17.5t17 56.5v302q0 39 -17 56.5t-51 17.5t-51 -17.5t-17 -56.5v-302q0 -39 17 -56.5t51 -17.5zM784 389q0 -110 -27 -186.5t-76.5 -124.5t-120.5 -70t-158 -22t-158 22t-120.5 70t-76.5 124.5t-27 186.5q0 109 27 186t76.5 125t120.5 70t158 22t158 -22
t120.5 -70t76.5 -125t27 -186zM161 926v26h251l109 -96v-15h-197z" />
    <glyph glyph-name="Odieresis" unicode="&#xd6;" horiz-adv-x="798" 
d="M402 164q34 0 51 17.5t17 56.5v302q0 39 -17 56.5t-51 17.5t-51 -17.5t-17 -56.5v-302q0 -39 17 -56.5t51 -17.5zM784 389q0 -110 -27 -186.5t-76.5 -124.5t-120.5 -70t-158 -22t-158 22t-120.5 70t-76.5 124.5t-27 186.5q0 109 27 186t76.5 125t120.5 70t158 22t158 -22
t120.5 -70t76.5 -125t27 -186zM170 952h187v-111h-187v111zM456 952h186v-111h-186v111z" />
    <glyph glyph-name="Ocircumflex" unicode="&#xd4;" horiz-adv-x="798" 
d="M402 164q34 0 51 17.5t17 56.5v302q0 39 -17 56.5t-51 17.5t-51 -17.5t-17 -56.5v-302q0 -39 17 -56.5t51 -17.5zM784 389q0 -110 -27 -186.5t-76.5 -124.5t-120.5 -70t-158 -22t-158 22t-120.5 70t-76.5 124.5t-27 186.5q0 109 27 186t76.5 125t120.5 70t158 22t158 -22
t120.5 -70t76.5 -125t27 -186zM419 898h-23l-79 -57h-168v15l127 96h263l127 -96v-15h-168z" />
    <glyph glyph-name="Otilde" unicode="&#xd5;" horiz-adv-x="798" 
d="M402 164q34 0 51 17.5t17 56.5v302q0 39 -17 56.5t-51 17.5t-51 -17.5t-17 -56.5v-302q0 -39 17 -56.5t51 -17.5zM784 389q0 -110 -27 -186.5t-76.5 -124.5t-120.5 -70t-158 -22t-158 22t-120.5 70t-76.5 124.5t-27 186.5q0 109 27 186t76.5 125t120.5 70t158 22t158 -22
t120.5 -70t76.5 -125t27 -186zM154 836q0 43 6 75.5t20.5 53.5t39.5 31.5t64 10.5q38 0 72 -5.5t66 -12.5t62 -12.5t60 -5.5q35 0 47 12t12 23h56q0 -43 -5 -75t-19 -53.5t-38 -32t-61 -10.5q-34 0 -68 6t-67.5 13t-66 13t-63.5 6q-34 0 -49 -13t-15 -24h-53z" />
    <glyph glyph-name="Rcommaaccent" unicode="&#x156;" horiz-adv-x="814" 
d="M366 164h66v-164h-406v164h60v450h-60v164h469q61 0 110.5 -12t83.5 -38.5t52.5 -69.5t18.5 -105q0 -66 -26.5 -115t-77.5 -69l1 -10q96 -15 96 -118v-77h47v-164h-317v235q0 30 -6.5 48.5t-21 28t-36.5 13t-53 3.5v-164zM420 450q29 0 43.5 15t14.5 49v36q0 34 -14.5 49
t-43.5 15h-54v-164h54zM342 -78h150v-142l-55 -113h-86l32 113h-41v142z" />
    <glyph glyph-name="Racute" unicode="&#x154;" horiz-adv-x="814" 
d="M366 164h66v-164h-406v164h60v450h-60v164h469q61 0 110.5 -12t83.5 -38.5t52.5 -69.5t18.5 -105q0 -66 -26.5 -115t-77.5 -69l1 -10q96 -15 96 -118v-77h47v-164h-317v235q0 30 -6.5 48.5t-21 28t-36.5 13t-53 3.5v-164zM420 450q29 0 43.5 15t14.5 49v36q0 34 -14.5 49
t-43.5 15h-54v-164h54zM477 841h-197v15l109 96h251v-26z" />
    <glyph glyph-name="Rcaron" unicode="&#x158;" horiz-adv-x="814" 
d="M366 164h66v-164h-406v164h60v450h-60v164h469q61 0 110.5 -12t83.5 -38.5t52.5 -69.5t18.5 -105q0 -66 -26.5 -115t-77.5 -69l1 -10q96 -15 96 -118v-77h47v-164h-317v235q0 30 -6.5 48.5t-21 28t-36.5 13t-53 3.5v-164zM420 450q29 0 43.5 15t14.5 49v36q0 34 -14.5 49
t-43.5 15h-54v-164h54zM479 952h168v-15l-127 -96h-263l-127 96v15h168l79 -57h23z" />
    <glyph glyph-name="Uacute" unicode="&#xda;" horiz-adv-x="795" 
d="M731 279q0 -81 -22.5 -136.5t-64.5 -90.5t-101.5 -50.5t-132.5 -15.5q-75 0 -135.5 15.5t-103 50.5t-66 90.5t-23.5 136.5v335h-60v164h380v-164h-40v-386q0 -34 14.5 -49t43.5 -15t43.5 15t14.5 49v386h-40v164h353v-164h-60v-335zM507 841h-197v15l109 96h251v-26z" />
    <glyph glyph-name="Ugrave" unicode="&#xd9;" horiz-adv-x="795" 
d="M731 279q0 -81 -22.5 -136.5t-64.5 -90.5t-101.5 -50.5t-132.5 -15.5q-75 0 -135.5 15.5t-103 50.5t-66 90.5t-23.5 136.5v335h-60v164h380v-164h-40v-386q0 -34 14.5 -49t43.5 -15t43.5 15t14.5 49v386h-40v164h353v-164h-60v-335zM177 926v26h251l109 -96v-15h-197z
" />
    <glyph glyph-name="Udieresis" unicode="&#xdc;" horiz-adv-x="795" 
d="M731 279q0 -81 -22.5 -136.5t-64.5 -90.5t-101.5 -50.5t-132.5 -15.5q-75 0 -135.5 15.5t-103 50.5t-66 90.5t-23.5 136.5v335h-60v164h380v-164h-40v-386q0 -34 14.5 -49t43.5 -15t43.5 15t14.5 49v386h-40v164h353v-164h-60v-335zM186 952h187v-111h-187v111zM472 952
h186v-111h-186v111z" />
    <glyph glyph-name="Ucircumflex" unicode="&#xdb;" horiz-adv-x="795" 
d="M731 279q0 -81 -22.5 -136.5t-64.5 -90.5t-101.5 -50.5t-132.5 -15.5q-75 0 -135.5 15.5t-103 50.5t-66 90.5t-23.5 136.5v335h-60v164h380v-164h-40v-386q0 -34 14.5 -49t43.5 -15t43.5 15t14.5 49v386h-40v164h353v-164h-60v-335zM435 898h-23l-79 -57h-168v15l127 96
h263l127 -96v-15h-168z" />
    <glyph glyph-name="Yacute" unicode="&#xdd;" horiz-adv-x="755" 
d="M395 614h-35l59 -175h10l59 175h-35v164h302v-164h-35l-193 -346v-104h60v-164h-400v164h60v104l-199 346h-36v164h383v-164zM507 841h-197v15l109 96h251v-26z" />
    <glyph glyph-name="uni0001" 
 />
    <glyph glyph-name="uni0002" 
 />
    <glyph glyph-name="uni0003" 
 />
    <glyph glyph-name="uni0004" 
 />
    <glyph glyph-name="uni0005" 
 />
    <glyph glyph-name="uni0006" 
 />
    <glyph glyph-name="uni0007" 
 />
    <glyph glyph-name="uni0008" 
 />
    <glyph glyph-name="uni0009" unicode="&#x9;" 
 />
    <glyph glyph-name="uni0010" 
 />
    <glyph glyph-name="uni0011" 
 />
    <glyph glyph-name="uni0012" 
 />
    <glyph glyph-name="uni0013" 
 />
    <glyph glyph-name="uni0014" 
 />
    <glyph glyph-name="uni0015" 
 />
    <glyph glyph-name="uni0016" 
 />
    <glyph glyph-name="uni0017" 
 />
    <glyph glyph-name="uni0018" 
 />
    <glyph glyph-name="uni0019" 
 />
    <glyph glyph-name="uni00AD" unicode="&#xad;" horiz-adv-x="336" 
d="M22 206v164h291v-164h-291z" />
    <glyph glyph-name="dollar" unicode="$" horiz-adv-x="686" 
d="M279 -132v120q-94 6 -152 22t-96 30v198h220q0 -30 12 -44.5t50 -14.5q33 0 47 10t14 30q0 14 -11.5 24.5t-46.5 24.5q-74 28 -129.5 53.5t-92 56.5t-54.5 72.5t-18 100.5q0 49 13.5 89.5t43.5 71t79 50t121 26.5v115h131v-113q47 -3 83 -9.5t66 -15t55 -18t41 -19.5
v-179h-210q0 29 -16 39.5t-39 10.5q-33 0 -47.5 -8.5t-14.5 -29.5q0 -17 15.5 -25t46.5 -18q58 -19 109.5 -40t90.5 -52t61.5 -75t22.5 -108q0 -115 -67 -178.5t-197 -75.5v-121h-131z" />
    <glyph glyph-name="divide" unicode="&#xf7;" horiz-adv-x="521" 
d="M179 608h156v-152h-156v152zM179 204h156v-152h-156v152zM40 260v144h441v-144h-441z" />
    <glyph glyph-name="logicalnot" unicode="&#xac;" horiz-adv-x="547" 
d="M340 124v158h-300v144h461v-302h-161z" />
    <glyph glyph-name="degree" unicode="&#xb0;" horiz-adv-x="252" 
d="M4 674q0 24 9 45.5t25 37.5t37.5 25.5t46.5 9.5q24 0 45.5 -9.5t37.5 -25.5t25.5 -37.5t9.5 -45.5q0 -25 -9.5 -46.5t-25.5 -37.5t-37.5 -25t-45.5 -9q-51 0 -84.5 33.5t-33.5 84.5zM76 674q0 -19 13.5 -32.5t32.5 -13.5q18 0 31.5 13.5t13.5 32.5q0 18 -13.5 31.5
t-31.5 13.5q-19 0 -32.5 -13.5t-13.5 -31.5z" />
    <glyph glyph-name="ordmasculine" unicode="&#xba;" horiz-adv-x="322" 
d="M312 646q0 -75 -41 -110.5t-110 -35.5q-70 0 -110.5 35.5t-40.5 110.5q0 73 40.5 109.5t110.5 36.5q69 0 110 -36.5t41 -109.5zM161 579q39 0 39 32v70q0 32 -39 32t-39 -32v-70q0 -32 39 -32z" />
    <glyph glyph-name="ordfeminine" unicode="&#xaa;" horiz-adv-x="337" 
d="M188 541q-9 -12 -30 -26.5t-57 -14.5q-43 0 -68 20t-25 58q0 48 43 72t137 24q0 20 -8.5 29.5t-37.5 9.5t-59 -4t-57 -11v76q43 11 76 14.5t63 3.5q40 0 66.5 -7.5t42.5 -23t22.5 -38t6.5 -52.5v-82h22v-82h-137v34zM188 624q-43 0 -60.5 -5t-17.5 -21q0 -19 31 -19
q20 0 33.5 11t13.5 31v3z" />
    <glyph glyph-name="T" unicode="T" horiz-adv-x="770" 
d="M16 778h752v-242h-172v78h-64v-450h70v-164h-420v164h70v450h-64v-78h-172v242z" />
    <glyph glyph-name="H" unicode="H" horiz-adv-x="868" 
d="M463 778h391v-164h-60v-450h60v-164h-391v164h51v165h-150v-165h51v-164h-391v164h60v450h-60v164h391v-164h-51v-152h150v152h-51v164z" />
    <glyph glyph-name="registered" unicode="&#xae;" horiz-adv-x="714" 
d="M340 375h26v-69h-155v69h27v171h-27v70h185q51 0 78 -20.5t27 -68.5q0 -56 -40 -75v-4q18 -4 28 -14t10 -33v-26h20v-69h-121v92q0 26 -16 32t-42 6v-61zM376 485q10 0 15 5.5t5 19.5v21q0 25 -20 25h-36v-71h36zM24 459q0 69 26 129.5t71.5 106t106 71.5t129.5 26
t129.5 -26t106 -71.5t71.5 -106t26 -129.5t-26 -129.5t-71.5 -106t-106 -71.5t-129.5 -26t-129.5 26t-106 71.5t-71.5 106t-26 129.5zM129 459q0 -48 18 -89.5t48.5 -72t72 -48.5t89.5 -18q47 0 88.5 18t72.5 48.5t49 72t18 89.5q0 47 -18 88.5t-49 72.5t-72.5 49t-88.5 18
q-48 0 -89.5 -18t-72 -49t-48.5 -72.5t-18 -88.5z" />
    <glyph glyph-name="copyright" unicode="&#xa9;" horiz-adv-x="714" 
d="M392 403h85v-72q-17 -11 -45.5 -21t-75.5 -10q-69 0 -109 37t-40 123t39.5 123t108.5 37q47 0 76 -10.5t46 -21.5v-68h-85v10q0 28 -37 28q-36 0 -36 -28v-141q0 -27 36 -27q37 0 37 27v14zM24 459q0 69 26 129.5t71.5 106t106 71.5t129.5 26t129.5 -26t106 -71.5
t71.5 -106t26 -129.5t-26 -129.5t-71.5 -106t-106 -71.5t-129.5 -26t-129.5 26t-106 71.5t-71.5 106t-26 129.5zM129 459q0 -48 18 -89.5t48.5 -72t72 -48.5t89.5 -18q47 0 88.5 18t72.5 48.5t49 72t18 89.5q0 47 -18 88.5t-49 72.5t-72.5 49t-88.5 18q-48 0 -89.5 -18
t-72 -49t-48.5 -72.5t-18 -88.5z" />
    <glyph glyph-name="macron" unicode="&#xaf;" horiz-adv-x="667" 
d="M189 738h357v-104h-357v104z" />
    <glyph glyph-name="foundryicon" horiz-adv-x="1088" 
d="M44 778h1000v-1000h-1000v1000zM539 -18q46 0 84.5 12.5t67 35t44.5 55t16 72.5q0 45 -21 81.5t-72 73.5l-239 172q23 25 58.5 35t71.5 10q39 0 68.5 -11.5t52.5 -25.5l-3 -37q0 -14 7.5 -22t21.5 -8q9 0 17.5 7t9.5 18l4 54v3q0 13 -16.5 26.5t-42.5 24.5t-58.5 18.5
t-63.5 7.5q-35 0 -72 -9.5t-68 -30t-51 -53.5t-20 -79t20.5 -83t71.5 -73l240 -172q-22 -23 -53.5 -34.5t-66.5 -11.5q-42 0 -79.5 11.5t-62.5 25.5l3 38q0 14 -6 22.5t-19 8.5q-14 0 -20.5 -7.5t-8.5 -18.5l-6 -56v-4q0 -14 18.5 -28t46.5 -24.5t61.5 -17t64.5 -6.5z
M625 268q23 -17 37 -31.5t21.5 -28t9.5 -26t2 -25.5q0 -8 -0.5 -14t-1.5 -11l-232 167q-38 28 -54.5 58t-16.5 56v11.5t1 9.5z" />
    <glyph glyph-name="yen" unicode="&#xa5;" horiz-adv-x="755" 
d="M395 614h-35l59 -175h10l59 175h-35v164h302v-164h-35l-90 -160h90v-79h-134l-38 -68h172v-79h-193v-64h60v-164h-400v164h60v64h-202v79h179l-39 68h-140v79h95l-92 160h-36v164h383v-164z" />
    </font>
</defs>
</svg>
