<?xml version="1.0" standalone="no"?>
<!DOCTYPE svg PUBLIC "-//W3C//DTD SVG 1.1//EN" "http://www.w3.org/Graphics/SVG/1.1/DTD/svg11.dtd" >
<svg xmlns="http://www.w3.org/2000/svg" xmlns:xlink="http://www.w3.org/1999/xlink" version="1.1">
<metadata>
Created by FontForge 20160407 at Sat Sep  3 17:53:54 2016
 By Jimmy Warting
Copyright (c) 2011 by LatinoType Limitada (info@latinotype.com),  with Reserved Font Names "Patua" and "Patua One"
</metadata>
<defs>
<font id="PatuaOne-Regular" horiz-adv-x="530" >
  <font-face 
    font-family="Patua One"
    font-weight="400"
    font-stretch="normal"
    units-per-em="1000"
    panose-1="2 0 0 0 0 0 0 0 0 0"
    ascent="800"
    descent="-200"
    x-height="500"
    cap-height="690"
    bbox="-145 -247 1221 972"
    underline-thickness="50"
    underline-position="-100"
    unicode-range="U+0020-FB02"
  />
<missing-glyph horiz-adv-x="250" 
 />
    <glyph glyph-name=".notdef" horiz-adv-x="250" 
 />
    <glyph glyph-name=".null" horiz-adv-x="0" 
 />
    <glyph glyph-name="nonmarkingreturn" horiz-adv-x="333" 
 />
    <glyph glyph-name="space" unicode=" " horiz-adv-x="225" 
 />
    <glyph glyph-name="exclam" unicode="!" horiz-adv-x="279" 
d="M62 510q0 84 7 180h142q6 -89 6 -168q0 -187 -33 -320h-90q-32 130 -32 308zM60 64q0 74 79.5 74t79.5 -74t-79.5 -74t-79.5 74z" />
    <glyph glyph-name="quotedbl" unicode="&#x22;" horiz-adv-x="386" 
d="M378.5 823q20.5 -16 20.5 -41q0 -66 -104 -203l-51 19q2 153 39 215q16 26 45.5 26t50 -16zM172.5 823q20.5 -16 20.5 -41q0 -66 -104 -203l-51 19q2 153 39 215q16 26 45.5 26t50 -16z" />
    <glyph glyph-name="numbersign" unicode="#" horiz-adv-x="793" 
d="M586 86h-72l-95 -286l-66 11q-7 11 -9.5 33.5t-2.5 35.5t8 31l58 175h-146l-95 -286l-66 11q-7 11 -9.5 33.5t-2.5 35.5t8 31l58 175h-122l-10 58q31 35 90 35h73l63 191h-122l-10 58q31 35 90 35h73l86 257l66 -11q7 -11 9.5 -33.5t2.5 -35.5t-8 -32l-49 -145h146
l86 257l66 -11q7 -11 9.5 -33.5t2.5 -35.5t-8 -32l-49 -145h123l10 -58q-30 -35 -90 -35h-74l-63 -191h121l10 -58q-30 -35 -90 -35zM355 370l-63 -191h146l63 191h-146z" />
    <glyph glyph-name="dollar" unicode="$" horiz-adv-x="541" 
d="M339 581q-34 9 -71 9t-59.5 -18.5t-22.5 -52t17 -52.5t67 -33l89 -26q72 -21 114.5 -65.5t42.5 -133t-59 -145.5t-151 -69q24 -77 24 -153v-17h-120q-1 11 -1 22q0 71 23 146q-126 7 -201 58v23t7 58t20 67h95q16 -31 19 -83q35 -15 81.5 -15t76.5 22t30 63q0 19 -3 31.5
t-18.5 27t-44.5 23.5l-103 30q-157 45 -157 200q0 80 51.5 132t136.5 64q-24 80 -24 152v21h120v-17q0 -75 -23 -153q95 -5 186 -47v-23t-7 -58t-20 -67h-95q-16 29 -20 79z" />
    <glyph glyph-name="percent" unicode="%" horiz-adv-x="846" 
d="M217 -5q-5 16 -5 40.5t19 58.5l332 626l63 -22q5 -16 5 -40t-19 -60l-332 -625zM25 507q0 97 50 146t132.5 49t128.5 -43.5t46 -142.5t-50.5 -150t-132.5 -51q-174 0 -174 192zM158.5 597q-11.5 -20 -11.5 -85.5t13 -89t44.5 -23.5t43.5 22t12 87.5t-13 87t-45 21.5
t-43.5 -20zM464 184q0 97 50 146t132.5 49t128.5 -43.5t46 -142.5t-50.5 -150t-132.5 -51q-174 0 -174 192zM597.5 274q-11.5 -20 -11.5 -85.5t13 -89t44.5 -23.5t43.5 22t12 87.5t-13 87t-45 21.5t-43.5 -20z" />
    <glyph glyph-name="ampersand" unicode="&#x26;" horiz-adv-x="591" 
d="M399 652.5q38 -45.5 38 -107.5t-34.5 -102t-112.5 -98q46 -68 142 -142q29 30 44 83l90 -32q-17 -66 -60 -120q13 -12 42 -32.5t34 -24.5l-56 -85q-57 30 -101 67q-93 -67 -188 -67t-151.5 45t-56.5 129q0 97 118 185q-75 97 -75 177.5t51 125t144.5 44.5t131.5 -45.5z
M329 530q0 79 -60 79q-75 0 -75 -79q0 -59 43 -118q92 62 92 118zM205 272q-39 -39 -39 -88q0 -91 108 -91q52 0 76 30q-111 99 -145 149z" />
    <glyph glyph-name="quotesingle" unicode="'" horiz-adv-x="180" 
d="M172.5 823q20.5 -16 20.5 -41q0 -66 -104 -203l-51 19q2 153 39 215q16 26 45.5 26t50 -16z" />
    <glyph glyph-name="parenleft" unicode="(" horiz-adv-x="285" 
d="M181 405q-10 -66 -10 -134.5t9.5 -136t23.5 -114.5q28 -92 52 -137l9 -18l-51 -39q-10 7 -33 31.5t-40.5 48.5t-38.5 63t-36 81q-37 101 -37 204.5t19 181t46 124t54.5 80.5t46.5 48l19 14l48 -42q-12 -18 -29.5 -61.5t-29.5 -85.5t-22 -108z" />
    <glyph glyph-name="parenright" unicode=")" horiz-adv-x="285" 
d="M236 436q20 -78 20 -164t-19 -163t-46 -126q-56 -101 -101 -141l-19 -16l-51 39q9 13 29 62.5t33 94.5q32 115 32 249q0 137 -32 243q-30 95 -50 130l-9 16l48 42q8 -5 20 -14.5t44 -46.5t56.5 -82t44.5 -123z" />
    <glyph glyph-name="asterisk" unicode="*" horiz-adv-x="415" 
d="M251 643v-36l91 53l36 -44q-8 -40 -53 -66l-31 -18l92 -52l-21 -53q-14 -5 -34.5 -5t-49.5 17l-30 17v-106l-56 -8q-32 27 -32 79v35l-92 -53l-35 44q8 41 53 67l31 18l-92 54l20 52q13 5 33.5 5t50.5 -18l31 -18v107l56 8q32 -26 32 -79z" />
    <glyph glyph-name="plus" unicode="+" horiz-adv-x="507" 
d="M305 405v-87h168l10 -62q-30 -35 -90 -35h-88v-167l-70 -10q-35 31 -35 90v87h-166l-10 62q31 35 90 35h86v167l70 10q35 -30 35 -90z" />
    <glyph glyph-name="comma" unicode="," horiz-adv-x="244" 
d="M36 65q0 76 85 76t85 -76q0 -67 -34 -124.5t-82 -91.5l-42 26q33 55 33 108q0 8 -1 15q-19 6 -31.5 24.5t-12.5 42.5z" />
    <glyph glyph-name="hyphen" unicode="-" horiz-adv-x="421" 
d="M286 220h-230l-10 64q31 35 90 35h230l10 -64q-30 -35 -90 -35z" />
    <glyph glyph-name="period" unicode="." horiz-adv-x="240" 
d="M37 65.5q0 75.5 83.5 75.5t83.5 -75.5t-83.5 -75.5t-83.5 75.5z" />
    <glyph glyph-name="slash" unicode="/" horiz-adv-x="413" 
d="M41 -189q-12 21 -12 69q0 13 8 31l269 809l66 -11q7 -11 9.5 -33.5t2.5 -35.5t-8 -32l-269 -808z" />
    <glyph glyph-name="zero" unicode="0" horiz-adv-x="576" 
d="M94.5 71q-53.5 79 -53.5 268t60.5 274t194 85t187 -75t53.5 -264t-61.5 -278t-194 -89t-186 79zM191 352q0 -145 20 -206t77 -61q48 0 71 39q27 45 27 205t-20 218t-79.5 58t-77.5 -54t-18 -199z" />
    <glyph glyph-name="one" unicode="1" horiz-adv-x="347" 
d="M206 693q27 0 55 -3v-1l1 1v-574q40 -16 55 -33l-10 -83h-260l-10 83q18 22 81 38v438q-56 6 -90 21v76q84 37 178 37z" />
    <glyph glyph-name="two" unicode="2" horiz-adv-x="543" 
d="M275 698q216 0 216 -175q0 -38 -19 -80.5t-45 -73.5l-145 -174q-33 -38 -78 -75l-16 -14l5 -11q46 9 98 9h79q7 55 25 86l95 -6q22 -38 22 -121q0 -35 -7 -63h-459l-24 124l249 270q70 76 70 146q0 36 -18 53t-64 17t-79 -13q-9 -74 -23 -97l-89 5q-19 33 -21 111
q0 17 1 24q90 58 227 58z" />
    <glyph glyph-name="three" unicode="3" horiz-adv-x="512" 
d="M40 644q0 13 1 22q25 12 84 22t102.5 10t79.5 -8t70 -26.5t53.5 -55t19.5 -82t-27 -85t-64 -59.5v-9q118 -42 118 -155.5t-80 -169.5t-207 -56q-40 0 -89.5 11.5t-76.5 25.5l23 86q67 -25 127 -25q147 0 147 106q0 120 -117 120q-47 0 -89 -4l-9 84l89 8q113 11 113 109
q0 51 -24 74t-72 23q-18 0 -36 -3q-7 -55 -25 -84l-89 5q-22 35 -22 116z" />
    <glyph glyph-name="four" unicode="4" horiz-adv-x="557" 
d="M459 282h74v-100h-74v-69q39 -15 55 -34l-10 -79h-254l-10 79q19 23 81 39v64h-289l-26 79l213 453l102 -44l-129 -304q-20 -46 -44 -74l-9 -11l5 -11q34 12 86 12h91v143q0 127 34 181l104 -11v-313z" />
    <glyph glyph-name="five" unicode="5" horiz-adv-x="499" 
d="M263 442q98 0 153.5 -52.5t55.5 -156.5q0 -123 -72.5 -182t-202.5 -59q-42 0 -92 12t-77 28l32 87q57 -22 123 -22t99 27t33 87q0 81 -38 107q-30 21 -72 21t-109 -10l-40 74h-1v287h369v-114h-244v-140q32 6 83 6z" />
    <glyph glyph-name="six" unicode="6" horiz-adv-x="524" 
d="M299 426q99 0 153 -53.5t54 -158t-68 -163.5t-184 -59t-167 67.5t-51 213.5t81.5 266.5t216.5 162.5l42 -83q-146 -63 -183 -218q47 25 106 25zM180 273q0 -97 20 -142t63 -45q99 0 99 125q0 59 -17.5 88.5t-58.5 29.5q-61 0 -106 -29v-27z" />
    <glyph glyph-name="seven" unicode="7" horiz-adv-x="502" 
d="M246 590h-88q-7 -55 -25 -86l-95 6q-22 38 -22 118q0 34 7 62h460l13 -79l-255 -611h-151l197 471q20 46 51 99l11 18l-5 11q-46 -9 -98 -9z" />
    <glyph glyph-name="eight" unicode="8" horiz-adv-x="556" 
d="M67 516q0 88 56.5 135t160 47t154.5 -41.5t51 -129.5q0 -39 -22 -80.5t-53 -69.5q54 -36 81 -72.5t27 -97.5q0 -100 -66.5 -157.5t-185 -57.5t-177.5 49t-59 151q0 54 28 99.5t76 74.5q-36 32 -53.5 65t-17.5 85zM180 204q0 -111 98 -111t98 94q0 52 -38 81
q-30 22 -63 35t-41 17q-54 -46 -54 -116zM214.5 588q-21.5 -20 -21.5 -49t7.5 -45.5t23.5 -28t28 -18t34.5 -15t30.5 -12.5q46 46 46 96.5t-22 71t-63.5 20.5t-63 -20z" />
    <glyph glyph-name="nine" unicode="9" horiz-adv-x="518" 
d="M237 282q-92 0 -156 53.5t-64 153.5t61.5 155t172 55t171.5 -75.5t61 -214.5t-82 -256t-212 -165l-46 83q139 65 182 228q-33 -17 -88 -17zM339 417q0 102 -24 145t-70 43t-65 -27t-19 -83.5t25.5 -86t63.5 -29.5q59 0 88 18q1 7 1 20z" />
    <glyph glyph-name="colon" unicode=":" horiz-adv-x="255" 
d="M48 144.5q0 74.5 79.5 74.5t79.5 -74.5t-79.5 -74.5t-79.5 74.5zM48 370.5q0 74.5 79.5 74.5t79.5 -74.5t-79.5 -74.5t-79.5 74.5z" />
    <glyph glyph-name="semicolon" unicode=";" horiz-adv-x="271" 
d="M53 115q0 73 81 73t81 -73q0 -63 -32 -118.5t-78 -87.5l-41 25q32 50 32 102q0 8 -1 15q-18 6 -30 23.5t-12 40.5zM54 367.5q0 74.5 79.5 74.5t79.5 -74.5t-79.5 -74.5t-79.5 74.5z" />
    <glyph glyph-name="less" unicode="&#x3c;" horiz-adv-x="390" 
d="M351 98l-44 -38q-57 25 -148.5 113.5t-135.5 165.5q44 77 135.5 165.5t148.5 113.5l44 -37q-42 -108 -161 -242q121 -138 161 -241z" />
    <glyph glyph-name="equal" unicode="=" horiz-adv-x="563" 
d="M421 305h-359l-10 62q31 35 90 35h359l10 -62q-30 -35 -90 -35zM421 108h-359l-10 62q31 35 90 35h359l10 -62q-30 -35 -90 -35z" />
    <glyph glyph-name="greater" unicode="&#x3e;" horiz-adv-x="391" 
d="M84 60l-44 38q37 98 160 241q-121 139 -160 242l44 37q57 -25 148.5 -113.5t135.5 -165.5q-44 -77 -135.5 -165.5t-148.5 -113.5z" />
    <glyph glyph-name="question" unicode="?" 
d="M167 193q-10 33 -10 54t8 44t38.5 53.5t63 51.5t57.5 52t25 66q0 75 -102 75q-42 0 -80 -16q-3 -52 -19 -83h-95q-13 26 -20 66.5t-7 57.5v23q43 29 105.5 45t120.5 16q111 0 182 -50.5t71 -144.5q0 -41 -17.5 -75.5t-43 -56t-55 -43.5t-54.5 -40q-53 -36 -53 -86
q0 -4 1 -9h-116zM139 67.5q0 75.5 83.5 75.5t83.5 -75.5t-83.5 -75.5t-83.5 75.5z" />
    <glyph glyph-name="at" unicode="@" horiz-adv-x="937" 
d="M422 -187q-386 0 -386 368q0 258 126.5 387.5t359.5 129.5q196 0 292.5 -87.5t96.5 -269.5q0 -140 -69 -232.5t-195 -92.5q-53 0 -85.5 19.5t-39.5 44.5q-23 -18 -57 -30t-58 -12q-76 0 -112 38.5t-36 119t20 136t53 84.5q62 54 127 54t101 -31q15 25 49 25h54l-31 -320
v-5q0 -33 37 -33q137 0 137 213q0 167 -90 237q-83 65 -211 65q-195 0 -289 -127q-34 -46 -54.5 -120.5t-20.5 -171.5q0 -160 82 -231.5t215 -71.5q111 0 205 33l17 -69q-108 -50 -238 -50zM393.5 144.5q14.5 -20.5 51.5 -20.5t72 32l20 215q-31 14 -66 14q-92 0 -92 -173
q0 -47 14.5 -67.5z" />
    <glyph glyph-name="A" unicode="A" horiz-adv-x="645" 
d="M390 695l199 -577q42 -15 59 -35l-10 -83h-234l-10 83q12 16 48 30l-27 84h-200l-25 -81q35 -14 52 -33l-10 -83h-228l-10 83q18 23 67 38l192 574h137zM307 555q0 -61 -25 -142l-39 -124h143l-38 122q-23 70 -26 127l-1 17h-14z" />
    <glyph glyph-name="B" unicode="B" horiz-adv-x="617" 
d="M269 690q118 0 171.5 -14.5t76.5 -34.5q51 -44 51 -135q0 -68 -73 -129q93 -47 93 -175q0 -100 -65.5 -148.5t-195.5 -53.5h-285l-10 83q13 17 55 33v457q-41 15 -55 34l10 83h227zM320 299h-89v-190h69q68 0 103 20t35 72t-27.5 75t-90.5 23zM283 581h-52v-173h82
q51 0 78 26t27 63.5t-19 56.5t-44 23t-72 4z" />
    <glyph glyph-name="C" unicode="C" horiz-adv-x="570" 
d="M404 572q-30 13 -90 13t-97 -52t-37 -182t35.5 -184.5t105.5 -54.5q107 0 192 32l36 -89q-106 -63 -249 -63t-206.5 81t-63.5 265t78.5 272t220.5 88q114 0 217 -63v-23t-7 -58t-20 -67h-95q-14 27 -20 85z" />
    <glyph glyph-name="D" unicode="D" horiz-adv-x="643" 
d="M297 0h-255l-10 83q13 17 55 33v457q-41 15 -55 34l10 83h223q161 0 255.5 -90t94.5 -264.5t-85.5 -255t-232.5 -80.5zM231 109h72q75 0 118.5 45.5t43.5 176.5q0 250 -189 250h-45v-472z" />
    <glyph glyph-name="E" unicode="E" horiz-adv-x="539" 
d="M506 0h-464l-10 83q13 17 55 33v457q-41 15 -55 34l10 83h456v-174l-74 -9q-23 20 -37 74h-156v-172h139q12 30 25 42l63 -7v-178l-63 -8q-13 10 -25 42h-139v-191h164q13 52 37 74l74 -9v-174z" />
    <glyph glyph-name="F" unicode="F" horiz-adv-x="523" 
d="M498 690v-174l-74 -9q-23 20 -37 74h-156v-182h139q12 30 25 42l63 -7v-178l-63 -8q-13 10 -25 42h-139v-166q67 -15 97 -41l-10 -83h-276l-10 83q13 17 55 33v457q-41 15 -55 34l10 83h456z" />
    <glyph glyph-name="G" unicode="G" horiz-adv-x="620" 
d="M323 585q-68 0 -105.5 -52t-37.5 -181q0 -247 136 -247q54 0 96 17v113q-46 15 -63 37l10 79h234l10 -79q-13 -16 -47 -31v-185q-48 -35 -105.5 -49.5t-143.5 -14.5q-143 0 -210 81.5t-67 265t79.5 271.5t218 88t226.5 -63v-23t-7 -58t-20 -67h-92q-15 28 -20 83
q-43 15 -92 15z" />
    <glyph glyph-name="H" unicode="H" horiz-adv-x="682" 
d="M451 316h-220v-200q40 -16 55 -33l-10 -83h-234l-10 83q13 17 55 33v457q-41 15 -55 34l10 83h234l10 -83q-16 -19 -55 -34v-157h220v157q-41 15 -55 34l10 83h234l10 -83q-16 -19 -55 -34v-457q40 -16 55 -33l-10 -83h-234l-10 83q13 17 55 33v200z" />
    <glyph glyph-name="I" unicode="I" horiz-adv-x="318" 
d="M276 690l10 -83q-16 -19 -55 -34v-457q40 -16 55 -33l-10 -83h-234l-10 83q13 17 55 33v457q-41 15 -55 34l10 83h234z" />
    <glyph glyph-name="J" unicode="J" horiz-adv-x="300" 
d="M12 -100q36 0 51 18.5t15 72.5v582q-41 15 -55 34l10 83h234l10 -83q-16 -19 -55 -34l-1 -573q0 -115 -44.5 -161.5t-144 -46.5t-170.5 52v21.5t6.5 51t18.5 59.5h90q14 -22 20 -75q5 -1 15 -1z" />
    <glyph glyph-name="K" unicode="K" horiz-adv-x="627" 
d="M625 0h-166l-222 360l167 222q-28 13 -39 27l10 81h228l10 -81q-14 -16 -52 -32l-173 -213l158 -238q65 -14 89 -43zM276 690l10 -83q-16 -19 -55 -34v-457q40 -16 55 -33l-10 -83h-234l-10 83q13 17 55 33v457q-41 15 -55 34l10 83h234z" />
    <glyph glyph-name="L" unicode="L" horiz-adv-x="502" 
d="M500 0h-458l-10 83q13 17 55 33v457q-41 15 -55 34l10 83h234l10 -83q-16 -19 -55 -34v-464h158q13 52 37 74l74 -9v-174z" />
    <glyph glyph-name="M" unicode="M" horiz-adv-x="907" 
d="M681 377q0 40 7 124l2 24l-10 1q-23 -85 -40 -135l-133 -391h-133l-140 391q-19 45 -34 112l-6 23l-10 -1q9 -89 9 -148v-263q37 -14 55 -37l-10 -77h-196l-10 77q18 23 55 37v462q-41 15 -57 37l10 77h228l146 -403q28 -66 36 -121l3 -17h14q4 61 36 138l139 403h224
l10 -77q-16 -22 -57 -37v-458q39 -15 55 -35l-10 -83h-228l-10 82q16 20 55 35v260z" />
    <glyph glyph-name="N" unicode="N" horiz-adv-x="676" 
d="M193 377v-263q37 -14 55 -37l-10 -77h-196l-10 77q18 23 55 37v462q-41 15 -57 37l10 77h206l199 -388q22 -42 43 -112l7 -24l11 4q-14 87 -14 146v259q-36 14 -55 38l10 77h196l10 -77q-19 -24 -55 -38v-575h-157l-201 391q-22 42 -43 113l-7 23l-11 -4q14 -87 14 -146z
" />
    <glyph glyph-name="O" unicode="O" horiz-adv-x="643" 
d="M100.5 74q-70.5 82 -70.5 265.5t77.5 271t221 87.5t214 -78t70.5 -261t-79 -275t-221 -92t-212.5 82zM180 352q0 -129 38 -188t104.5 -59t103.5 55.5t37 184.5q0 240 -144 240q-67 0 -103 -52t-36 -181z" />
    <glyph glyph-name="P" unicode="P" horiz-adv-x="606" 
d="M276 240h-45v-118q73 -16 91 -39l-10 -83h-270l-10 83q13 17 55 33v457q-41 15 -55 34l10 83h265q139 -2 207.5 -50.5t68.5 -172.5q0 -227 -307 -227zM291 581h-60v-232h67q68 0 101.5 27t33.5 93.5t-36.5 89t-105.5 22.5z" />
    <glyph glyph-name="Q" unicode="Q" horiz-adv-x="643" 
d="M82.5 99q-52.5 83 -52.5 253.5t77.5 258t221 87.5t214 -78t70.5 -264q0 -155 -59 -245t-167 -112q50 -65 167 -84l-10 -91h-9q-104 0 -189 45.5t-106 128.5q-105 18 -157.5 101zM180 352q0 -129 38 -188t104.5 -59t103.5 55.5t37 184.5q0 240 -144 240q-67 0 -103 -52
t-36 -181z" />
    <glyph glyph-name="R" unicode="R" horiz-adv-x="628" 
d="M573 488q0 -68 -42.5 -114t-106.5 -70q50 -21 66 -51l73 -139q47 -16 64 -37l-10 -77h-169l-115 245q-16 37 -37 37h-65v-160q73 -16 91 -39l-10 -83h-270l-10 83q13 17 55 33v457q-41 15 -55 34l10 83h255q140 -2 208 -45t68 -157zM290 581h-59v-190h57q68 0 101.5 20.5
t33.5 73.5t-34 74.5t-99 21.5z" />
    <glyph glyph-name="S" unicode="S" horiz-adv-x="538" 
d="M340 581q-34 9 -71 9t-59.5 -18.5t-22.5 -52t17 -52.5t67 -33l89 -26q72 -21 114.5 -65.5t42.5 -130.5q0 -102 -73.5 -161t-182.5 -59q-60 0 -123.5 15.5t-105.5 43.5v23t7 58t20 67h95q16 -31 19 -83q35 -15 81.5 -15t76.5 22t30 63q0 19 -3 31.5t-18.5 27t-44.5 23.5
l-103 30q-157 45 -157 200q0 91 66 145.5t172.5 54.5t208.5 -48v-23t-7 -58t-20 -67h-95q-17 24 -20 79z" />
    <glyph glyph-name="T" unicode="T" horiz-adv-x="576" 
d="M568 689v-143l-63 -8q-13 10 -25 42h-120v-464q40 -16 55 -33l-10 -83h-234l-10 83q13 17 55 33v464h-120q-12 -32 -25 -42l-63 8v143h560z" />
    <glyph glyph-name="U" unicode="U" horiz-adv-x="634" 
d="M503.5 55.5q-59.5 -63.5 -192.5 -63.5t-186.5 62.5t-53.5 195.5v323q-38 14 -55 34l10 83h234l10 -83q-16 -19 -55 -34v-327q0 -72 23.5 -106.5t84.5 -34.5t86 35.5t25 105.5v327q-41 15 -55 34l10 83h219l10 -83q-16 -19 -55 -34v-323q0 -131 -59.5 -194.5z" />
    <glyph glyph-name="V" unicode="V" horiz-adv-x="630" 
d="M246 -5l-190 578q-43 16 -56 34l10 83h234l10 -83q-14 -19 -51 -32l85 -296q21 -69 26 -127l1 -17h14q1 61 25 142l89 297q-38 13 -53 33l10 83h228l10 -83q-18 -22 -67 -38l-188 -574h-137z" />
    <glyph glyph-name="W" unicode="W" horiz-adv-x="979" 
d="M456 374l-84 -379h-154l-160 578q-41 15 -55 34l10 83h231l10 -83q-17 -20 -54 -33l71 -295q16 -64 25 -127l2 -17h14q1 59 19 142l90 406h153l90 -404q16 -73 22 -127l2 -18h14q2 61 24 143l79 293q-42 15 -58 37l10 83h221l10 -83q-19 -24 -67 -39l-168 -573h-157
l-81 378q-14 68 -21 133l-2 20h-14q-4 -69 -22 -152z" />
    <glyph glyph-name="X" unicode="X" horiz-adv-x="596" 
d="M317 423q6 24 36 80l38 72q-35 15 -49 32l10 83h228l10 -83q-18 -22 -67 -38l-130 -210l135 -241q44 -15 61 -35l-10 -83h-234l-10 83q12 14 42 28l-46 98q-25 51 -33 82l-3 11h-15q-9 -34 -36 -91l-45 -96q36 -16 50 -32l-10 -83h-228l-10 83q18 22 67 38l136 239
l-130 211q-47 16 -62 36l10 83h234l10 -83q-13 -16 -40 -27l40 -75q26 -50 36 -82h15z" />
    <glyph glyph-name="Y" unicode="Y" horiz-adv-x="588" 
d="M412 0h-234l-10 83q13 17 55 33v115l-163 339q-47 16 -64 37l9 78v1l1 4h234l10 -83q-12 -17 -46 -30l34 -77q29 -66 50 -131l7 -20h15q21 73 55 151l32 73q-40 16 -54 34l10 83h228l10 -83q-20 -23 -66 -38l-158 -338v-115q40 -16 55 -33z" />
    <glyph glyph-name="Z" unicode="Z" horiz-adv-x="570" 
d="M269 590h-93q-7 -55 -25 -86l-95 6q-22 38 -22 118q0 34 7 62h487l10 -79l-290 -435q-27 -42 -56 -66l-11 -8l5 -11q46 9 98 9h122q7 55 25 86l95 -6q22 -38 22 -118q0 -34 -7 -62h-516l-10 79l290 435q27 42 57 66l10 8l-5 11q-46 -9 -98 -9z" />
    <glyph glyph-name="bracketleft" unicode="[" horiz-adv-x="327" 
d="M223 634h-55v-748h55q27 0 50.5 -9t33.5 -17l10 -9l-10 -51h-240v920h240l10 -51q-34 -35 -94 -35z" />
    <glyph glyph-name="backslash" unicode="\" horiz-adv-x="446" 
d="M151 641l267 -809l-59 -31q-15 6 -35 29.5t-28 48.5l-268 810l60 30q17 -7 36 -30t27 -48z" />
    <glyph glyph-name="bracketright" unicode="]" horiz-adv-x="327" 
d="M159 634h-55q-27 0 -50.5 8.5t-33.5 17.5l-10 9l10 51h240v-920h-240l-10 51q34 35 94 35h55v748z" />
    <glyph glyph-name="asciicircum" unicode="^" horiz-adv-x="524" 
d="M262 695q-53 -79 -124 -126l-43 35q13 45 67.5 126t99.5 107q45 -26 99.5 -107t67.5 -126l-43 -35q-71 47 -124 126z" />
    <glyph glyph-name="underscore" unicode="_" horiz-adv-x="633" 
d="M451 -125h-348l-10 60q31 35 90 35h348l10 -60q-30 -35 -90 -35z" />
    <glyph glyph-name="grave" unicode="`" horiz-adv-x="833" 
d="M328 600l-54 -31q-41 26 -84 74.5t-57 88.5l104 64q29 -29 57 -90.5t34 -105.5z" />
    <glyph glyph-name="a" unicode="a" horiz-adv-x="512" 
d="M46 426q0 15 1 32q93 50 200 50t153.5 -40.5t46.5 -134.5v-213q35 -7 55 -17v-87q-51 -24 -146 -24q-10 26 -17 63q-43 -63 -156 -63q-67 0 -114.5 39t-47.5 106t44.5 105.5t132.5 38.5h109v48q0 78 -83 78q-31 0 -51 -6q-2 -42 -12 -65h-98q-17 35 -17 90zM226 94
q51 0 81 30v82h-70q-72 0 -72 -55q0 -25 15.5 -41t45.5 -16z" />
    <glyph glyph-name="b" unicode="b" horiz-adv-x="537" 
d="M5 710q56 13 104 13t81 -3v-250q21 15 56 26.5t67 11.5q109 0 153 -56t44 -191q0 -75 -20.5 -129.5t-55.5 -83.5q-66 -56 -156 -56q-68 0 -134 34q-19 -26 -44 -26h-50v599q-35 12 -55 34zM270 94q96 0 96 161q0 85 -16.5 115.5t-57.5 30.5q-62 0 -102 -33v-257
q43 -17 80 -17z" />
    <glyph glyph-name="c" unicode="c" horiz-adv-x="450" 
d="M261 406q-92 0 -92 -158q0 -80 25.5 -111.5t73.5 -31.5q76 0 134 14l30 -77q-32 -21 -86 -35.5t-105 -14.5q-216 0 -216 250q0 146 75 210q67 56 163 56t160 -36q1 -10 1 -19q0 -57 -26 -108h-88q-14 25 -17 60q-12 1 -32 1z" />
    <glyph glyph-name="d" unicode="d" horiz-adv-x="555" 
d="M286 710q57 13 109 13t89 -3v-600q30 -5 55 -17v-79q-60 -32 -152 -32q-10 5 -19.5 18t-10.5 25q-22 -18 -57 -30.5t-69 -12.5q-108 0 -156.5 58.5t-48.5 191.5q0 151 74 212q65 54 160 54q42 0 84 -10v99q-46 13 -68 36zM252 94q57 0 92 34v268q-41 10 -87 10
t-66.5 -40.5t-20.5 -121t20 -115.5t62 -35z" />
    <glyph glyph-name="e" unicode="e" horiz-adv-x="483" 
d="M266 -8q-120 0 -180.5 64t-60.5 186q0 74 21 127.5t57 82.5q70 56 163 56t142.5 -47.5t49.5 -170.5q0 -72 -71 -72h-217q4 -63 32.5 -89t90.5 -26q34 0 65 8t45 16l14 8l30 -80q-6 -7 -17.5 -17.5t-58 -28t-105.5 -17.5zM329 307q2 14 2 34t-16 42.5t-55.5 22.5
t-60.5 -24t-28 -81z" />
    <glyph glyph-name="f" unicode="f" horiz-adv-x="382" 
d="M81 519q0 104 45 156.5t143 52.5t170 -53q1 -7 1 -20.5t-7 -44.5t-19 -50h-84q-18 34 -19 64q-12 2 -20 2q-38 0 -54 -21t-16 -76v-38h153v-92h-153v-283q75 -15 102 -39l-10 -77h-277l-10 77q14 19 55 34v288h-44l-11 69q22 20 55 23v28z" />
    <glyph glyph-name="g" unicode="g" horiz-adv-x="535" 
d="M256 -106q89 0 89 107v44q-49 -30 -123 -30q-94 0 -144.5 55t-50.5 183q0 255 234 255q60 0 112 -26q10 18 30 18h82v-492q0 -110 -54.5 -163t-168.5 -53q-60 0 -124 14t-97 35q-1 9 -1 18q0 55 26 106h88q11 -21 16 -56q38 -15 86 -15zM185.5 154q20.5 -30 70 -30
t89.5 28v237q-40 17 -87 17q-93 0 -93 -147q0 -75 20.5 -105z" />
    <glyph glyph-name="h" unicode="h" horiz-adv-x="583" 
d="M24 710q56 13 104 13t81 -3v-250q24 16 64 27t71 11q99 0 137 -48t38 -146v-203q39 -15 55 -34l-10 -77h-230l-10 77q14 19 55 34v198q0 54 -17.5 72.5t-63.5 18.5t-89 -32v-257q39 -15 55 -34l-10 -77h-230l-10 77q14 19 55 34v488q-35 12 -55 34z" />
    <glyph glyph-name="i" unicode="i" horiz-adv-x="292" 
d="M38 500q56 13 104 13t81 -3v-399q39 -15 55 -34l-10 -77h-230l-10 77q14 19 55 34v278q-35 12 -55 34zM68 644.5q0 75.5 83.5 75.5t83.5 -75.5t-83.5 -75.5t-83.5 75.5z" />
    <glyph glyph-name="j" unicode="j" horiz-adv-x="260" 
d="M25 500q56 13 104 13t81 -3v-510q0 -116 -43.5 -162t-145.5 -46q-30 0 -57 5l12 98q7 -1 35 -1t43.5 21t15.5 76v398q-35 12 -55 34zM55 644.5q0 75.5 83.5 75.5t83.5 -75.5t-83.5 -75.5t-83.5 75.5z" />
    <glyph glyph-name="k" unicode="k" horiz-adv-x="567" 
d="M24 710q56 13 104 13t81 -3v-609q39 -15 55 -34l-10 -77h-230l-10 77q14 19 55 34v488q-35 12 -55 34zM395 0l-177 259l110 143q-17 10 -24 21l10 77h220l10 -77q-22 -28 -83 -44l-96 -110l113 -149q62 -14 87 -43l-10 -77h-160z" />
    <glyph glyph-name="l" unicode="l" horiz-adv-x="279" 
d="M24 710q56 13 104 13t81 -3v-609q39 -15 55 -34l-10 -77h-230l-10 77q14 19 55 34v488q-35 12 -55 34z" />
    <glyph glyph-name="m" unicode="m" horiz-adv-x="876" 
d="M36 500q55 12 99 12t73 -2v-50q24 20 60 34t65 14q114 0 152 -57q25 24 66 40.5t76 16.5q110 0 148 -49.5t38 -185.5v-162q39 -15 55 -34l-10 -77h-230l-10 77q14 19 55 34v198q0 55 -15 73t-59.5 18t-84.5 -33q5 -34 5 -94v-162q39 -15 55 -34l-10 -77h-230l-10 77
q14 19 55 34v198q0 55 -15 73t-59 18t-84 -32v-257q39 -15 55 -34l-10 -77h-230l-10 77q14 19 55 34v278q-35 12 -55 34z" />
    <glyph glyph-name="n" unicode="n" horiz-adv-x="595" 
d="M36 500q55 12 99 12t73 -2v-50q25 21 66.5 34.5t79.5 13.5q98 0 137.5 -46t39.5 -159v-192q39 -15 55 -34l-10 -77h-230l-10 77q14 19 55 34v198q0 54 -17.5 72.5t-62.5 18.5t-90 -32v-257q39 -15 55 -34l-10 -77h-230l-10 77q14 19 55 34v278q-35 12 -55 34z" />
    <glyph glyph-name="o" unicode="o" 
d="M82 55q-57 63 -57 190.5t63.5 195t182.5 67.5t176.5 -60t57.5 -187.5t-64.5 -198t-183 -70.5t-175.5 63zM169 254q0 -160 96 -160q49 0 72.5 36.5t23.5 119.5q0 156 -98 156q-48 0 -71 -34.5t-23 -117.5z" />
    <glyph glyph-name="p" unicode="p" horiz-adv-x="556" 
d="M25 500q55 12 99 12t73 -2v-49q67 47 143 47q100 0 145 -57t45 -190q0 -71 -21 -125t-57 -84q-69 -60 -164 -60q-41 0 -78 8v-86q59 -16 76 -37l-10 -77h-251l-10 77q13 18 55 34v478q-35 12 -55 34zM278 94q50 0 79 44.5t29 123t-16 107.5t-58 29q-64 0 -102 -30v-266
q31 -8 68 -8z" />
    <glyph glyph-name="q" unicode="q" horiz-adv-x="534" 
d="M484 500v-594q29 -13 42 -29l-10 -77h-232l-10 77q19 24 70 39v113q-56 -37 -109 -37q-111 0 -160 58t-49 192q0 151 74 212q65 54 160 54q55 0 106 -23q22 15 42 15h76zM190 129q20 -35 67 -35t87 38v257q-40 17 -86.5 17t-67 -40.5t-20.5 -121t20 -115.5z" />
    <glyph glyph-name="r" unicode="r" horiz-adv-x="388" 
d="M326 377q-76 0 -105 -29v-229q81 -15 111 -42l-10 -77h-286l-10 77q14 19 55 34v278q-35 12 -55 34l10 77q55 12 99 12t73 -2v-63q23 27 59 44.5t65.5 17.5t40.5 -5l-3 -130q-20 3 -44 3z" />
    <glyph glyph-name="s" unicode="s" horiz-adv-x="451" 
d="M226 418q-66 0 -66 -39q0 -37 69 -55l79 -21q122 -32 122 -141q0 -75 -52.5 -122.5t-167 -47.5t-178.5 32q-1 11 -1 22q0 55 22 99h83q13 -24 17 -50q20 -6 57 -6q88 0 88 50q0 16 -12 26.5t-47 20.5l-79 23q-61 17 -95 50.5t-34 99t53 107.5t151.5 42t166.5 -29
q1 -10 1 -20q0 -52 -22 -96h-82q-13 23 -17 48q-28 7 -56 7z" />
    <glyph glyph-name="t" unicode="t" horiz-adv-x="372" 
d="M208 626v-126h143v-84h-143v-253q0 -32 9 -46.5t43 -14.5t73 15l30 -78q-77 -39 -157.5 -39t-109 34.5t-28.5 100.5v281h-45l-11 61q16 19 66 38q12 82 57 111h73z" />
    <glyph glyph-name="u" unicode="u" horiz-adv-x="588" 
d="M395 42q-69 -50 -162.5 -50t-130.5 39t-37 127v231q-35 12 -55 34l10 77q56 13 104 13t81 -3v-319q0 -54 16.5 -71.5t65.5 -17.5t91 32v255q-35 12 -55 34l10 77q56 13 104 13t81 -3v-390q35 -7 55 -17v-79q-60 -32 -151 -32q-25 18 -27 50z" />
    <glyph glyph-name="v" unicode="v" horiz-adv-x="586" 
d="M348 -6h-110l-164 390q-50 16 -67 39l10 77h230l10 -77q-13 -16 -43 -29l54 -151q18 -47 26 -93l2 -14h14q8 50 28 105l53 148q-37 14 -52 34l10 77h220l10 -77q-18 -23 -66 -39z" />
    <glyph glyph-name="w" unicode="w" horiz-adv-x="814" 
d="M498 -6l-51 158q-16 48 -25 120l-3 24h-14q-10 -78 -30 -143l-47 -159h-142l-126 393q-43 15 -59 36l10 77h234l10 -77q-18 -21 -61 -36l58 -255h14q11 53 26 109l68 257h112l67 -255l25 -111h14q37 169 50 227l6 28q-45 16 -60 36l10 77h222l10 -77q-17 -23 -63 -38
l-125 -391h-130z" />
    <glyph glyph-name="x" unicode="x" horiz-adv-x="554" 
d="M294 304q7 27 29 62l18 28q-29 13 -41 29l10 77h220l10 -77q-20 -27 -81 -43l-88 -123l94 -139q55 -15 76 -41l-10 -77h-230l-10 77q10 13 37 26l-25 41q-17 28 -26 59l-3 10h-14q-9 -35 -29 -67l-24 -38q34 -15 46 -31l-10 -77h-220l-10 77q19 25 75 41l95 139l-88 123
q-60 16 -81 43l10 77h230l10 -77q-14 -16 -34 -25l21 -30q20 -30 29 -64h14z" />
    <glyph glyph-name="y" unicode="y" horiz-adv-x="568" 
d="M161 -116q18 0 38.5 33.5t28.5 79.5l-164 388q-49 16 -66 38l10 77h230l10 -77q-13 -16 -44 -29l55 -151q18 -47 25 -93l3 -14h14q8 50 28 105l53 148q-37 14 -52 34l10 77h220l10 -77q-18 -23 -66 -39l-165 -390q-47 -111 -72 -143q-44 -59 -122.5 -59t-119.5 41
q-1 10 -1 20q0 55 23 104h83q15 -27 17 -73h14z" />
    <glyph glyph-name="z" unicode="z" horiz-adv-x="479" 
d="M42 358q-11 50 -11 86.5t1 55.5h405l10 -84l-195 -249q-27 -36 -59 -62l5 -11q29 9 81 9h55q15 36 33 53l77 -10q11 -50 11 -88t-1 -58h-423l-10 82l196 252q27 36 59 62l-5 11q-29 -9 -81 -9h-39q-15 -34 -32 -50z" />
    <glyph glyph-name="braceleft" unicode="{" horiz-adv-x="430" 
d="M2 211v97q74 0 116 26.5t42 79.5q0 24 -9 78.5t-9 79.5q0 75 41 115.5t100 40.5q87 0 131 -28l-10 -80q-29 -12 -79 -12q-38 0 -38 -76q0 -27 7 -68.5t7 -61.5q0 -60 -33.5 -95.5t-78.5 -42.5v-8q45 -7 78.5 -43t33.5 -96q0 -20 -7 -61.5t-7 -68.5q0 -76 38 -76
q50 0 79 -12l10 -80q-44 -28 -131 -28q-59 0 -100 40.5t-41 115.5q0 25 9 79.5t9 78.5q0 53 -42 79.5t-116 26.5z" />
    <glyph glyph-name="bar" unicode="|" horiz-adv-x="231" 
d="M166 626v-816l-66 -10q-35 35 -35 94v816l66 10q35 -34 35 -94z" />
    <glyph glyph-name="braceright" unicode="}" horiz-adv-x="430" 
d="M428 308v-97q-74 0 -116 -26.5t-42 -79.5q0 -24 9 -78.5t9 -79.5q0 -75 -41 -115.5t-100 -40.5q-87 0 -131 28l10 80q29 12 79 12q38 0 38 76q0 27 -7 68.5t-7 61.5q0 60 33.5 96t78.5 43v8q-45 7 -78.5 42.5t-33.5 95.5q0 20 7 61.5t7 68.5q0 76 -38 76q-50 0 -79 12
l-10 80q44 28 131 28q59 0 100 -40.5t41 -115.5q0 -25 -9 -79.5t-9 -78.5q0 -53 42 -79.5t116 -26.5z" />
    <glyph glyph-name="asciitilde" unicode="~" horiz-adv-x="602" 
d="M132 346q27 8 62 8t94 -22.5t98 -22.5t72.5 9.5t50.5 19.5l17 10l47 -67q-8 -9 -23 -22t-63 -35t-91.5 -22t-104.5 22.5t-93 22.5q-60 0 -108 -25l-16 -9l-44 66q6 9 24 24t34.5 25t43.5 18z" />
    <glyph glyph-name="uni00A0" unicode="&#xa0;" horiz-adv-x="225" 
 />
    <glyph glyph-name="exclamdown" unicode="&#xa1;" horiz-adv-x="278" 
d="M61 168q0 187 33 320h90q32 -130 32 -308q0 -84 -7 -180h-142q-6 89 -6 168zM218 626q0 -74 -79.5 -74t-79.5 74t79.5 74t79.5 -74z" />
    <glyph glyph-name="cent" unicode="&#xa2;" horiz-adv-x="459" 
d="M320 -160v-17h-120q-1 13 -1 25q0 71 24 145q-107 4 -152 61.5t-45 184.5t51.5 189.5t133.5 75.5q-25 80 -25 153q0 11 1 21h120v-17q0 -77 -24 -154q82 -3 141 -35q1 -10 1 -19q0 -57 -26 -108h-88q-14 25 -17 60q-12 1 -32 1q-51 0 -71.5 -40.5t-20.5 -120t25 -113
t73 -33.5q71 0 133 20l32 -77q-52 -33 -137 -46q24 -78 24 -156z" />
    <glyph glyph-name="sterling" unicode="&#xa3;" horiz-adv-x="538" 
d="M277 327h-42v-218h158q13 52 37 74l74 -9v-174h-458l-10 83q13 17 55 33v211h-44l-10 64q19 21 54 30v41q0 146 75 194q37 24 74.5 33t86.5 9q98 0 162 -36q1 -10 1 -19q0 -57 -26 -108h-88q-14 25 -17 60q-12 1 -32 1q-51 0 -71.5 -28.5t-20.5 -99.5v-42h122l10 -64
q-30 -35 -90 -35z" />
    <glyph glyph-name="currency" unicode="&#xa4;" horiz-adv-x="630" 
d="M107 200q-28 55 -28 140.5t31 140.5l-72 72l35 50h6q40 0 76 -36l19 -19q58 35 144 35t139 -29l70 70l51 -35v-6q0 -40 -36 -76l-18 -18q30 -54 30 -141.5t-33 -144.5l73 -72l-35 -51h-2q-42 0 -80 37l-19 18q-58 -36 -145.5 -36t-141.5 33l-68 -68l-51 35q-2 44 36 82z
M174 345q0 -86 40 -125t102 -39q144 0 144 160.5t-145 160.5q-141 0 -141 -157z" />
    <glyph glyph-name="yen" unicode="&#xa5;" horiz-adv-x="623" 
d="M451 155h-66v-39q40 -16 55 -33l-10 -83h-234l-10 83q13 17 55 33v39h-146l-10 52q31 35 90 35h66v48h-146l-10 52q31 35 90 35h20l-100 191q-51 15 -70 39l10 83h153l76 -162q35 -79 45 -116l4 -15h15q10 55 48 131l76 162h136l10 -83q-18 -24 -72 -40l-97 -190h102
l10 -52q-30 -35 -90 -35h-66v-48h146l10 -52q-30 -35 -90 -35z" />
    <glyph glyph-name="brokenbar" unicode="&#xa6;" horiz-adv-x="231" 
d="M65 -106v263h101v-347l-66 -10q-35 35 -35 94zM166 626v-246h-101v330l66 10q35 -34 35 -94z" />
    <glyph glyph-name="section" unicode="&#xa7;" horiz-adv-x="486" 
d="M240 614q-66 0 -66 -37q0 -34 69 -51l79 -20q122 -30 122 -132q0 -74 -56 -117q57 -35 57 -105.5t-52.5 -115t-167.5 -44.5t-178 30q-1 10 -1 20q0 52 22 93h83q14 -27 17 -47q21 -5 57 -5q88 0 88 47q0 15 -12 25t-47 19l-79 21q-61 16 -95 47.5t-34 96.5t63 103
q-64 39 -64 108.5t53 108.5t152.5 39t165.5 -27q1 -10 1 -19q0 -49 -22 -90h-82q-13 21 -17 45q-28 7 -56 7zM312 352q0 13 -28 24q-27 11 -83 30q-26 -19 -26 -52q0 -12 9 -18t15 -9.5t17 -7.5t19 -7q32 -10 44 -14q33 20 33 54z" />
    <glyph glyph-name="dieresis" unicode="&#xa8;" horiz-adv-x="548" 
d="M79 699q0 76 81.5 76t81.5 -75.5t-82 -75.5q-40 0 -60.5 17t-20.5 58zM319 699q0 76 81.5 76t81.5 -75.5t-82 -75.5q-40 0 -60.5 17t-20.5 58z" />
    <glyph glyph-name="copyright" unicode="&#xa9;" horiz-adv-x="766" 
d="M532 499q0 -45 -18 -81h-72q-12 17 -14 47q-17 8 -41 8q-73 0 -73 -125q0 -70 18 -99t55 -29q63 0 122 20l25 -55q-68 -39 -158 -39t-131 45.5t-41 149t49.5 152.5t129.5 49t149 -37v-6zM37 345q0 177 90 265t262 88t256 -84t84 -260.5t-91 -269t-263 -92.5
q-338 0 -338 353zM208.5 144q67.5 -64 173.5 -64q243 0 243 265t-244 265q-104 0 -169 -52q-71 -56 -71 -203t67.5 -211z" />
    <glyph glyph-name="ordfeminine" unicode="&#xaa;" horiz-adv-x="421" 
d="M50 646q0 9 1 18q28 16 73 27t86 11q73 0 107 -27t34 -96v-167q28 -6 41 -12v-61q-43 -24 -114 -24q-15 5 -27 23q-42 -23 -98 -23t-89 26.5t-33 78.5q0 66 45.5 89t151.5 23h18v34q0 34 -12.5 47t-41 13t-47.5 -6q-3 -29 -13 -47h-66q-16 31 -16 73zM140 427
q0 -35 36.5 -35t69.5 17v54q-69 0 -87.5 -6.5t-18.5 -29.5z" />
    <glyph glyph-name="guillemotleft" unicode="&#xab;" horiz-adv-x="538" 
d="M457 457l47 -35q-9 -32 -37.5 -81.5t-63.5 -93.5q79 -98 101 -174l-47 -35q-41 17 -105 83.5t-98 125.5q34 59 98 125.5t105 84.5zM227 457l47 -35q-9 -32 -37.5 -81.5t-63.5 -93.5q79 -98 101 -174l-47 -35q-41 17 -105 83.5t-98 125.5q34 59 98 125.5t105 84.5z" />
    <glyph glyph-name="logicalnot" unicode="&#xac;" horiz-adv-x="635" 
d="M468 401h-355q-27 0 -49.5 8.5t-31.5 17.5l-9 9l10 64h534v-267q0 -26 -8.5 -48.5t-17.5 -32.5l-9 -9l-64 10v248z" />
    <glyph glyph-name="uni00AD" unicode="&#xad;" horiz-adv-x="421" 
d="M286 220h-230l-10 64q31 35 90 35h230l10 -64q-30 -35 -90 -35z" />
    <glyph glyph-name="registered" unicode="&#xae;" horiz-adv-x="766" 
d="M371 537q81 0 121.5 -24t40.5 -86.5t-74 -94.5v-5q22 -11 32 -29l36 -68q22 -5 37 -20l-5 -46h-106l-66 132q-9 17 -18 17h-25v-79q36 -7 50 -23l-5 -47h-169l-6 48q10 10 31 18v240q-23 10 -31 19l6 48h151zM367 472h-23v-93h22q33 0 49 10t16 34q0 49 -64 49zM37 345
q0 177 90 265t262 88t256 -84t84 -260.5t-91 -269t-263 -92.5q-338 0 -338 353zM208.5 144q67.5 -64 173.5 -64q243 0 243 265t-244 265q-104 0 -169 -52q-71 -56 -71 -203t67.5 -211z" />
    <glyph glyph-name="macron" unicode="&#xaf;" horiz-adv-x="420" 
d="M292 585h-242l-10 60q31 35 90 35h242l10 -60q-30 -35 -90 -35z" />
    <glyph glyph-name="degree" unicode="&#xb0;" horiz-adv-x="375" 
d="M30 560q0 145 156 145q73 0 116 -35t43 -109.5t-43 -109t-115.5 -34.5t-114.5 34.5t-42 108.5zM187 637q-73 0 -73 -75t73 -75t73 75t-73 75z" />
    <glyph glyph-name="plusminus" unicode="&#xb1;" horiz-adv-x="531" 
d="M316 425v-51h168l10 -62q-30 -35 -90 -35h-88v-129l-70 -10q-35 31 -35 90v49h-166l-10 62q31 35 90 35h86v131l70 10q35 -30 35 -90zM404 0h-359l-10 62q31 35 90 35h359l10 -62q-30 -35 -90 -35z" />
    <glyph glyph-name="twosuperior" unicode="&#xb2;" horiz-adv-x="402" 
d="M236 601q0 27 -39 27t-55 -6q-4 -31 -19 -50l-57 4q-19 31 -19 76q0 8 1 16q26 16 73.5 26.5t86.5 10.5q143 0 143 -101q0 -44 -51 -88l-95 -84q-16 -14 -42 -25l3 -6q30 6 55 6h46q11 31 20 44l64 -5q11 -38 11 -67.5t-5 -51.5h-303l-20 81l161 141q5 5 15.5 14t15.5 15
q10 10 10 23z" />
    <glyph glyph-name="threesuperior" unicode="&#xb3;" horiz-adv-x="379" 
d="M223 593q0 38 -46 38l-38 -5q-2 -23 -13 -44l-61 1q-23 44 -23 84q0 8 1 16q63 22 148 22q141 0 141 -92q0 -25 -14.5 -47.5t-38.5 -33.5v-5q29 -7 49 -30.5t20 -62.5q0 -59 -50 -89t-133.5 -30t-130.5 25l22 68q51 -14 101 -14q82 0 82 46q0 43 -76 43l-75 -3l-8 62
l70 5q31 2 52 13.5t21 32.5z" />
    <glyph glyph-name="acute" unicode="&#xb4;" horiz-adv-x="485" 
d="M238 569l-54 31q6 44 34 105.5t57 90.5l104 -64q-14 -40 -57 -88.5t-84 -74.5z" />
    <glyph glyph-name="mu" unicode="&#xb5;" horiz-adv-x="615" 
d="M88 -179q0 115 23 221q-32 43 -32 156v191q-35 12 -55 34l10 77q56 13 104 13t81 -3v-325q0 -54 17.5 -72.5t56.5 -18.5q60 0 103 38v257q-35 12 -55 34l10 77q56 13 104 13t81 -3v-388q35 -7 55 -17v-81q-60 -32 -152 -32q-25 18 -27 50q-23 -20 -64 -35t-78.5 -15
t-64.5 4q16 -99 16 -141t-1 -55q-26 -14 -69 -14t-63 14v21z" />
    <glyph glyph-name="paragraph" unicode="&#xb6;" horiz-adv-x="579" 
d="M184 -101q37 -13 86.5 -13t69 28t19.5 79v697h185l10 -83q-16 -19 -55 -34v-566q0 -117 -64 -166t-165 -49q-60 0 -121 13t-94 34v14q0 50 25 102h88q11 -21 16 -56zM267 690h41v-419h-67q-107 0 -160.5 47t-53.5 159q0 130 69 174q35 22 75 30.5t96 8.5z" />
    <glyph glyph-name="periodcentered" unicode="&#xb7;" horiz-adv-x="248" 
d="M41 275.5q0 75.5 83.5 75.5t83.5 -75.5t-83.5 -75.5t-83.5 75.5z" />
    <glyph glyph-name="cedilla" unicode="&#xb8;" horiz-adv-x="225" 
d="M46 -54q0 32 17 61h79q-12 -21 -12 -42q65 -7 65 -76q0 -95 -149 -106l-16 54q33 12 46 22t13 29t-12 29t-30 11q-1 9 -1 18z" />
    <glyph glyph-name="onesuperior" unicode="&#xb9;" horiz-adv-x="252" 
d="M158 701q14 0 29 -1v-288q23 -10 30 -23l-5 -62h-163l-8 62q14 16 41 27v187q-27 5 -40 12v63q56 23 116 23z" />
    <glyph glyph-name="ordmasculine" unicode="&#xba;" horiz-adv-x="422" 
d="M74 362q-43 47 -43 143t48 146.5t137.5 50.5t132.5 -45t43 -141t-48.5 -148.5t-137.5 -52.5t-132 47zM140 511q0 -120 72 -120t72 117t-74 117q-36 0 -53 -26t-17 -88z" />
    <glyph glyph-name="guillemotright" unicode="&#xbb;" horiz-adv-x="538" 
d="M34 422l47 35q41 -18 105 -84.5t98 -125.5q-34 -59 -98 -125.5t-105 -83.5l-47 35q22 76 101 174q-35 44 -63.5 93.5t-37.5 81.5zM264 422l47 35q41 -18 105 -84.5t98 -125.5q-34 -59 -98 -125.5t-105 -83.5l-47 35q22 76 101 174q-35 44 -63.5 93.5t-37.5 81.5z" />
    <glyph glyph-name="onequarter" unicode="&#xbc;" horiz-adv-x="718" 
d="M130 -1q-5 15 -5 39.5t19 59.5l330 622l63 -22q5 -16 5 -40t-19 -60l-330 -621zM500 173h53v53q0 58 33 107l76 -7v-153h28v-74h-28v-15q20 -8 30 -22l-8 -62h-165l-9 60q14 18 43 24v15h-202l-19 47l70 136q33 64 84 92l52 -34l-61 -130q-8 -20 -26 -38l3 -6q22 7 46 7z
M27 678q54 24 134 24q16 0 30 -2v-284q27 -11 41 -27l-8 -62h-171l-8 62q14 16 41 27v187q-34 4 -59 12v63z" />
    <glyph glyph-name="onehalf" unicode="&#xbd;" horiz-adv-x="765" 
d="M520 295q-4 -31 -19 -50l-57 4q-19 31 -19 76q0 8 1 16q26 16 73.5 26.5t86.5 10.5q143 0 143 -101q0 -44 -51 -88l-95 -84q-16 -14 -42 -25l3 -6l55 6h46q11 31 20 44l64 -5q11 -38 11 -67.5t-5 -51.5h-303l-20 81l161 141q5 5 23 20q18 16 18 32q0 27 -39 27t-55 -6z
M131 -1q-5 15 -5 39.5t19 59.5l330 622l63 -22q5 -16 5 -40t-19 -60l-330 -621zM26 678q54 24 134 24q16 0 30 -2v-284q27 -11 41 -27l-8 -62h-171l-8 62q14 16 41 27v187q-34 4 -59 12v63z" />
    <glyph glyph-name="threequarters" unicode="&#xbe;" horiz-adv-x="786" 
d="M202 -1q-5 15 -5 39.5t19 59.5l330 622l63 -22q5 -16 5 -40t-19 -60l-330 -621zM568 173h53v53q0 58 33 107l76 -7v-153h28v-74h-28v-15q20 -8 30 -22l-8 -62h-165l-9 60q14 18 43 24v15h-202l-19 47l70 136q33 64 84 92l52 -34l-61 -130q-8 -20 -26 -38l3 -6q22 7 46 7z
M155 483q-21 0 -75 -3l-8 62l70 5q31 2 52 13.5t21 32.5q0 38 -46 38q-20 0 -38 -5q-2 -23 -13 -44l-61 1q-23 44 -23 84q0 8 1 16q63 22 148 22q141 0 141 -92q0 -25 -14.5 -47.5t-38.5 -33.5v-5q29 -7 49 -30.5t20 -62.5v-1q0 -37 -19.5 -62.5t-51.5 -36.5
q-55 -19 -111 -19q-85 0 -132 25l22 68q51 -14 101 -14q82 0 82 46q0 43 -76 43z" />
    <glyph glyph-name="questiondown" unicode="&#xbf;" 
d="M363 497q10 -33 10 -54t-8 -44t-38.5 -53.5t-63 -51.5t-57.5 -52t-25 -66q0 -75 102 -75q42 0 80 16q3 52 19 83h95q13 -26 20 -66.5t7 -57.5v-23q-43 -29 -105.5 -45t-120.5 -16q-111 0 -182 50.5t-71 144.5q0 41 17.5 75.5t43 56t55 43.5t54.5 40q53 36 53 86q0 4 -1 9
h116zM391 622.5q0 -75.5 -83.5 -75.5t-83.5 75.5t83.5 75.5t83.5 -75.5z" />
    <glyph glyph-name="Agrave" unicode="&#xc0;" horiz-adv-x="645" 
d="M379 787l-54 -31q-42 26 -81 69.5t-53 82.5l104 64q29 -29 53.5 -85t30.5 -100zM390 695l199 -577q42 -15 59 -35l-10 -83h-234l-10 83q12 16 48 30l-27 84h-200l-25 -81q35 -14 52 -33l-10 -83h-228l-10 83q18 23 67 38l192 574h137zM307 555q0 -61 -25 -142l-39 -124
h143l-38 122q-23 70 -26 127l-1 17h-14z" />
    <glyph glyph-name="Aacute" unicode="&#xc1;" horiz-adv-x="645" 
d="M263 787q6 44 30.5 100t53.5 85l104 -64q-14 -39 -53 -82.5t-81 -69.5q-54 29 -54 31zM390 695l199 -577q42 -15 59 -35l-10 -83h-234l-10 83q12 16 48 30l-27 84h-200l-25 -81q35 -14 52 -33l-10 -83h-228l-10 83q18 23 67 38l192 574h137zM307 555q0 -61 -25 -142
l-39 -124h143l-38 122q-23 70 -26 127l-1 17h-14z" />
    <glyph glyph-name="Acircumflex" unicode="&#xc2;" horiz-adv-x="645" 
d="M486 797l-36 -41q-46 13 -124 80q-78 -67 -124 -80l-36 41q13 35 64 89.5t96 84.5q45 -30 96 -84.5t64 -89.5zM390 695l199 -577q42 -15 59 -35l-10 -83h-234l-10 83q12 16 48 30l-27 84h-200l-25 -81q35 -14 52 -33l-10 -83h-228l-10 83q18 23 67 38l192 574h137z
M307 555q0 -61 -25 -142l-39 -124h143l-38 122q-23 70 -26 127l-1 17h-14z" />
    <glyph glyph-name="Atilde" unicode="&#xc3;" horiz-adv-x="645" 
d="M170.5 883q31.5 18 64.5 18t79 -14t76 -14q56 0 92 21l12 7l40 -63q-4 -6 -21.5 -21t-32.5 -24q-42 -24 -79 -24t-84.5 14t-72.5 14q-47 0 -80 -20l-11 -7l-38 66q5 7 14.5 18t41 29zM390 695l199 -577q42 -15 59 -35l-10 -83h-234l-10 83q12 16 48 30l-27 84h-200
l-25 -81q35 -14 52 -33l-10 -83h-228l-10 83q18 23 67 38l192 574h137zM307 555q0 -61 -25 -142l-39 -124h143l-38 122q-23 70 -26 127l-1 17h-14z" />
    <glyph glyph-name="Adieresis" unicode="&#xc4;" horiz-adv-x="645" 
d="M126 818q0 76 81.5 76t81.5 -75.5t-82 -75.5q-40 0 -60.5 17t-20.5 58zM366 818q0 76 81.5 76t81.5 -75.5t-82 -75.5q-40 0 -60.5 17t-20.5 58zM390 695l199 -577q42 -15 59 -35l-10 -83h-234l-10 83q12 16 48 30l-27 84h-200l-25 -81q35 -14 52 -33l-10 -83h-228l-10 83
q18 23 67 38l192 574h137zM307 555q0 -61 -25 -142l-39 -124h143l-38 122q-23 70 -26 127l-1 17h-14z" />
    <glyph glyph-name="Aring" unicode="&#xc5;" horiz-adv-x="645" 
d="M230.5 760q-31.5 24 -31.5 83t32 83.5t90 24.5q125 0 125 -109q0 -106 -125 -106q-59 0 -90.5 24zM264 843q0 -51 58.5 -51t58.5 51q0 53 -58.5 53t-58.5 -53zM390 695l199 -577q42 -15 59 -35l-10 -83h-234l-10 83q12 16 48 30l-27 84h-200l-25 -81q35 -14 52 -33
l-10 -83h-228l-10 83q18 23 67 38l192 574h137zM307 555q0 -61 -25 -142l-39 -124h143l-38 122q-23 70 -26 127l-1 17h-14z" />
    <glyph glyph-name="AE" unicode="&#xc6;" horiz-adv-x="906" 
d="M865 690v-174l-74 -9q-23 20 -37 74h-156v-176h139q9 28 25 42l63 -7v-176l-63 -8q-15 12 -25 42h-139v-189h164q13 52 37 74l74 -9v-174h-464l-10 83q13 17 55 33v104h-206l-63 -108q32 -14 45 -29l-10 -83h-228l-10 83q16 20 61 36l355 571h467zM454 319v265h-9
q-18 -59 -61 -132l-78 -133h148z" />
    <glyph glyph-name="Ccedilla" unicode="&#xc7;" horiz-adv-x="570" 
d="M261 -72q-1 8 -1 24t9 41q-125 7 -182 88.5t-57 261t78.5 267.5t220.5 88q114 0 217 -63v-23t-7 -58t-20 -67h-95q-14 27 -20 85q-30 13 -90 13t-97 -52t-37 -182t35.5 -184.5t105.5 -54.5q107 0 192 32l36 -89q-87 -52 -199 -60q-6 -15 -6 -30q65 -7 65 -76
q0 -95 -149 -106l-16 54q33 12 46 22t13 29t-12 29t-30 11z" />
    <glyph glyph-name="Egrave" unicode="&#xc8;" horiz-adv-x="539" 
d="M340 787l-54 -31q-42 26 -81 69.5t-53 82.5l104 64q29 -29 53.5 -85t30.5 -100zM506 0h-464l-10 83q13 17 55 33v457q-41 15 -55 34l10 83h456v-174l-74 -9q-23 20 -37 74h-156v-172h139q12 30 25 42l63 -7v-178l-63 -8q-13 10 -25 42h-139v-191h164q13 52 37 74l74 -9
v-174z" />
    <glyph glyph-name="Eacute" unicode="&#xc9;" horiz-adv-x="539" 
d="M266 756l-54 31q6 44 30.5 100t53.5 85l104 -64q-14 -39 -53 -82.5t-81 -69.5zM506 0h-464l-10 83q13 17 55 33v457q-41 15 -55 34l10 83h456v-174l-74 -9q-23 20 -37 74h-156v-172h139q12 30 25 42l63 -7v-178l-63 -8q-13 10 -25 42h-139v-191h164q13 52 37 74l74 -9
v-174z" />
    <glyph glyph-name="Ecircumflex" unicode="&#xca;" horiz-adv-x="539" 
d="M440 797l-36 -41q-46 13 -124 80q-78 -67 -124 -80l-36 41q13 35 64 89.5t96 84.5q45 -30 96 -84.5t64 -89.5zM506 0h-464l-10 83q13 17 55 33v457q-41 15 -55 34l10 83h456v-174l-74 -9q-23 20 -37 74h-156v-172h139q12 30 25 42l63 -7v-178l-63 -8q-13 10 -25 42h-139
v-191h164q13 52 37 74l74 -9v-174z" />
    <glyph glyph-name="Edieresis" unicode="&#xcb;" horiz-adv-x="539" 
d="M74 818q0 76 81.5 76t81.5 -75.5t-82 -75.5q-40 0 -60.5 17t-20.5 58zM314 818q0 76 81.5 76t81.5 -75.5t-82 -75.5q-40 0 -60.5 17t-20.5 58zM506 0h-464l-10 83q13 17 55 33v457q-41 15 -55 34l10 83h456v-174l-74 -9q-23 20 -37 74h-156v-172h139q12 30 25 42l63 -7
v-178l-63 -8q-13 10 -25 42h-139v-191h164q13 52 37 74l74 -9v-174z" />
    <glyph glyph-name="Igrave" unicode="&#xcc;" horiz-adv-x="318" 
d="M235 787l-54 -31q-42 26 -81 69.5t-53 82.5l104 64q29 -29 53.5 -85t30.5 -100zM276 690l10 -83q-16 -19 -55 -34v-457q40 -16 55 -33l-10 -83h-234l-10 83q13 17 55 33v457q-41 15 -55 34l10 83h234z" />
    <glyph glyph-name="Iacute" unicode="&#xcd;" horiz-adv-x="318" 
d="M158 756l-54 31q6 44 30.5 100t53.5 85l104 -64q-14 -39 -53 -82.5t-81 -69.5zM276 690l10 -83q-16 -19 -55 -34v-457q40 -16 55 -33l-10 -83h-234l-10 83q13 17 55 33v457q-41 15 -55 34l10 83h234z" />
    <glyph glyph-name="Icircumflex" unicode="&#xce;" horiz-adv-x="318" 
d="M321 797l-36 -41q-46 13 -124 80q-78 -67 -124 -80l-36 41q13 35 64 89.5t96 84.5q45 -30 96 -84.5t64 -89.5zM276 690l10 -83q-16 -19 -55 -34v-457q40 -16 55 -33l-10 -83h-234l-10 83q13 17 55 33v457q-41 15 -55 34l10 83h234z" />
    <glyph glyph-name="Idieresis" unicode="&#xcf;" horiz-adv-x="318" 
d="M-27 818q0 76 81.5 76t81.5 -75.5t-82 -75.5q-40 0 -60.5 17t-20.5 58zM193 818q0 76 81.5 76t81.5 -75.5t-82 -75.5q-40 0 -60.5 17t-20.5 58zM276 690l10 -83q-16 -19 -55 -34v-457q40 -16 55 -33l-10 -83h-234l-10 83q13 17 55 33v457q-41 15 -55 34l10 83h234z" />
    <glyph glyph-name="Eth" unicode="&#xd0;" horiz-adv-x="659" 
d="M313 0h-255l-10 83q13 17 55 33v200h-80l-10 64q31 35 90 35v158q-41 15 -55 34l10 83h223q161 0 255.5 -90t94.5 -264.5t-85.5 -255t-232.5 -80.5zM247 109h72q75 0 118.5 45.5t43.5 176.5q0 250 -189 250h-45v-166h150l10 -64q-30 -35 -90 -35h-70v-207z" />
    <glyph glyph-name="Ntilde" unicode="&#xd1;" horiz-adv-x="676" 
d="M186.5 883q31.5 18 64.5 18t79 -14t76 -14q56 0 92 21l12 7l40 -63q-4 -6 -21.5 -21t-32.5 -24q-42 -24 -79 -24t-84.5 14t-72.5 14q-47 0 -80 -20l-11 -7l-38 66q5 7 14.5 18t41 29zM193 377v-263q37 -14 55 -37l-10 -77h-196l-10 77q18 23 55 37v462q-41 15 -57 37
l10 77h206l199 -388q22 -42 43 -112l7 -24l11 4q-14 87 -14 146v259q-36 14 -55 38l10 77h196l10 -77q-19 -24 -55 -38v-575h-157l-201 391q-22 42 -43 113l-7 23l-11 -4q14 -87 14 -146z" />
    <glyph glyph-name="Ograve" unicode="&#xd2;" horiz-adv-x="643" 
d="M390 787l-54 -31q-42 26 -81 69.5t-53 82.5l104 64q29 -29 53.5 -85t30.5 -100zM100.5 74q-70.5 82 -70.5 265.5t77.5 271t221 87.5t214 -78t70.5 -261t-79 -275t-221 -92t-212.5 82zM180 352q0 -129 38 -188t104.5 -59t103.5 55.5t37 184.5q0 240 -144 240
q-67 0 -103 -52t-36 -181z" />
    <glyph glyph-name="Oacute" unicode="&#xd3;" horiz-adv-x="643" 
d="M300 756l-54 31q6 44 30.5 100t53.5 85l104 -64q-14 -39 -53 -82.5t-81 -69.5zM100.5 74q-70.5 82 -70.5 265.5t77.5 271t221 87.5t214 -78t70.5 -261t-79 -275t-221 -92t-212.5 82zM180 352q0 -129 38 -188t104.5 -59t103.5 55.5t37 184.5q0 240 -144 240
q-67 0 -103 -52t-36 -181z" />
    <glyph glyph-name="Ocircumflex" unicode="&#xd4;" horiz-adv-x="643" 
d="M482 797l-36 -41q-46 13 -124 80q-78 -67 -124 -80l-36 41q13 35 64 89.5t96 84.5q45 -30 96 -84.5t64 -89.5zM100.5 74q-70.5 82 -70.5 265.5t77.5 271t221 87.5t214 -78t70.5 -261t-79 -275t-221 -92t-212.5 82zM180 352q0 -129 38 -188t104.5 -59t103.5 55.5t37 184.5
q0 240 -144 240q-67 0 -103 -52t-36 -181z" />
    <glyph glyph-name="Otilde" unicode="&#xd5;" horiz-adv-x="643" 
d="M169.5 883q31.5 18 65 18t78.5 -14t75 -14q57 0 93 21l12 7l40 -63q-4 -6 -21.5 -21t-33.5 -24q-41 -24 -78 -24t-84.5 14t-72.5 14q-47 0 -79 -20l-12 -7l-38 66q5 7 14.5 18t41 29zM100.5 74q-70.5 82 -70.5 265.5t77.5 271t221 87.5t214 -78t70.5 -261t-79 -275
t-221 -92t-212.5 82zM180 352q0 -129 38 -188t104.5 -59t103.5 55.5t37 184.5q0 240 -144 240q-67 0 -103 -52t-36 -181z" />
    <glyph glyph-name="Odieresis" unicode="&#xd6;" horiz-adv-x="643" 
d="M128 818q0 76 81.5 76t81.5 -75.5t-82 -75.5q-40 0 -60.5 17t-20.5 58zM368 818q0 76 81.5 76t81.5 -75.5t-82 -75.5q-40 0 -60.5 17t-20.5 58zM100.5 74q-70.5 82 -70.5 265.5t77.5 271t221 87.5t214 -78t70.5 -261t-79 -275t-221 -92t-212.5 82zM180 352
q0 -129 38 -188t104.5 -59t103.5 55.5t37 184.5q0 240 -144 240q-67 0 -103 -52t-36 -181z" />
    <glyph glyph-name="multiply" unicode="&#xd7;" horiz-adv-x="543" 
d="M477 55q-45 0 -84 39l-122 121l-175 -176l-54 37q-2 47 39 88l120 121l-175 175l37 54h6q43 0 82 -39l120 -120l176 176l54 -37v-6q0 -43 -39 -82l-121 -121l177 -176l-37 -54h-4z" />
    <glyph glyph-name="Oslash" unicode="&#xd8;" horiz-adv-x="663" 
d="M54 343q0 355 283 355q150 0 211 -82l83 80l35 -24q0 -49 -43 -91l-39 -37q25 -77 25 -188q0 -182 -73 -273t-217.5 -91t-207.5 91l-79 -77l-36 24q1 50 43 91l37 36q-22 72 -22 186zM459 345q0 40 -3 73l-233 -226q29 -87 108 -87q66 0 97 54t31 186zM204 352
q0 -27 2 -69l231 225q-29 77 -108 77q-65 0 -95 -50.5t-30 -182.5z" />
    <glyph glyph-name="Ugrave" unicode="&#xd9;" horiz-adv-x="634" 
d="M384 787l-54 -31q-42 26 -81 69.5t-53 82.5l104 64q29 -29 53.5 -85t30.5 -100zM503.5 55.5q-59.5 -63.5 -192.5 -63.5t-186.5 62.5t-53.5 195.5v323q-38 14 -55 34l10 83h234l10 -83q-16 -19 -55 -34v-327q0 -72 23.5 -106.5t84.5 -34.5t86 35.5t25 105.5v327
q-41 15 -55 34l10 83h219l10 -83q-16 -19 -55 -34v-323q0 -131 -59.5 -194.5z" />
    <glyph glyph-name="Uacute" unicode="&#xda;" horiz-adv-x="634" 
d="M254 787q6 44 30.5 100t53.5 85l104 -64q-14 -39 -53 -82.5t-81 -69.5q-54 29 -54 31zM503.5 55.5q-59.5 -63.5 -192.5 -63.5t-186.5 62.5t-53.5 195.5v323q-38 14 -55 34l10 83h234l10 -83q-16 -19 -55 -34v-327q0 -72 23.5 -106.5t84.5 -34.5t86 35.5t25 105.5v327
q-41 15 -55 34l10 83h219l10 -83q-16 -19 -55 -34v-323q0 -131 -59.5 -194.5z" />
    <glyph glyph-name="Ucircumflex" unicode="&#xdb;" horiz-adv-x="634" 
d="M482 797l-36 -41q-46 13 -124 80q-78 -67 -124 -80l-36 41q13 35 64 89.5t96 84.5q45 -30 96 -84.5t64 -89.5zM503.5 55.5q-59.5 -63.5 -192.5 -63.5t-186.5 62.5t-53.5 195.5v323q-38 14 -55 34l10 83h234l10 -83q-16 -19 -55 -34v-327q0 -72 23.5 -106.5t84.5 -34.5
t86 35.5t25 105.5v327q-41 15 -55 34l10 83h219l10 -83q-16 -19 -55 -34v-323q0 -131 -59.5 -194.5z" />
    <glyph glyph-name="Udieresis" unicode="&#xdc;" horiz-adv-x="634" 
d="M123 818q0 76 81.5 76t81.5 -75.5t-82 -75.5q-40 0 -60.5 17t-20.5 58zM363 818q0 76 81.5 76t81.5 -75.5t-82 -75.5q-40 0 -60.5 17t-20.5 58zM503.5 55.5q-59.5 -63.5 -192.5 -63.5t-186.5 62.5t-53.5 195.5v323q-38 14 -55 34l10 83h234l10 -83q-16 -19 -55 -34v-327
q0 -72 23.5 -106.5t84.5 -34.5t86 35.5t25 105.5v327q-41 15 -55 34l10 83h219l10 -83q-16 -19 -55 -34v-323q0 -131 -59.5 -194.5z" />
    <glyph glyph-name="Yacute" unicode="&#xdd;" horiz-adv-x="588" 
d="M288 756l-54 31q6 44 30.5 100t53.5 85l104 -64q-14 -39 -53 -82.5t-81 -69.5zM412 0h-234l-10 83q13 17 55 33v115l-163 339q-47 16 -64 37l9 78v1l1 4h234l10 -83q-12 -17 -46 -30l34 -77q29 -66 50 -131l7 -20h15q21 73 55 151l32 73q-40 16 -54 34l10 83h228l10 -83
q-20 -23 -66 -38l-158 -338v-115q40 -16 55 -33z" />
    <glyph glyph-name="Thorn" unicode="&#xde;" horiz-adv-x="611" 
d="M231 536h100q129 0 190.5 -42t61.5 -145q0 -191 -262 -191h-90v-36q73 -16 91 -39l-10 -83h-270l-10 83q13 17 55 33v457q-41 15 -55 34l10 83h270l10 -83q-19 -24 -91 -40v-31zM291 435h-60v-176h67q69 0 102 19.5t33 72.5q0 55 -43 71q-34 13 -99 13z" />
    <glyph glyph-name="germandbls" unicode="&#xdf;" horiz-adv-x="575" 
d="M209 0h-185l-10 77q14 19 55 34v408q0 104 45 156.5t142.5 52.5t159.5 -43t62 -115q0 -59 -66 -146q-23 -30 -23 -46t28 -40.5t61 -48.5t61 -64t28 -82q0 -72 -51 -111.5t-139 -39.5q-62 0 -116 8l15 98q31 -9 73 -9t64 12.5t22 35.5t-27.5 49t-60 46t-60 53.5
t-27.5 64.5t15.5 57.5t33.5 46t33.5 49t15.5 58t-22.5 47t-58.5 18.5t-52 -21t-16 -76v-529z" />
    <glyph glyph-name="agrave" unicode="&#xe0;" horiz-adv-x="512" 
d="M46 426q0 15 1 32q93 50 200 50t153.5 -40.5t46.5 -134.5v-213q35 -7 55 -17v-87q-51 -24 -146 -24q-10 26 -17 63q-43 -63 -156 -63q-67 0 -114.5 39t-47.5 106t44.5 105.5t132.5 38.5h109v48q0 78 -83 78q-31 0 -51 -6q-2 -42 -12 -65h-98q-17 35 -17 90zM226 94
q51 0 81 30v82h-70q-72 0 -72 -55q0 -25 15.5 -41t45.5 -16zM313 600l-54 -31q-41 26 -84 74.5t-57 88.5l104 64q29 -29 57 -90.5t34 -105.5z" />
    <glyph glyph-name="aacute" unicode="&#xe1;" horiz-adv-x="512" 
d="M46 426q0 15 1 32q93 50 200 50t153.5 -40.5t46.5 -134.5v-213q35 -7 55 -17v-87q-51 -24 -146 -24q-10 26 -17 63q-43 -63 -156 -63q-67 0 -114.5 39t-47.5 106t44.5 105.5t132.5 38.5h109v48q0 78 -83 78q-31 0 -51 -6q-2 -42 -12 -65h-98q-17 35 -17 90zM226 94
q51 0 81 30v82h-70q-72 0 -72 -55q0 -25 15.5 -41t45.5 -16zM223 569l-54 31q6 44 34 105.5t57 90.5l104 -64q-14 -40 -57 -88.5t-84 -74.5z" />
    <glyph glyph-name="acircumflex" unicode="&#xe2;" horiz-adv-x="512" 
d="M46 426q0 15 1 32q93 50 200 50t153.5 -40.5t46.5 -134.5v-213q35 -7 55 -17v-87q-51 -24 -146 -24q-10 26 -17 63q-43 -63 -156 -63q-67 0 -114.5 39t-47.5 106t44.5 105.5t132.5 38.5h109v48q0 78 -83 78q-31 0 -51 -6q-2 -42 -12 -65h-98q-17 35 -17 90zM226 94
q51 0 81 30v82h-70q-72 0 -72 -55q0 -25 15.5 -41t45.5 -16zM427 610l-36 -41q-46 13 -124 80q-78 -67 -124 -80l-36 41q13 35 64 89.5t96 84.5q45 -30 96 -84.5t64 -89.5z" />
    <glyph glyph-name="atilde" unicode="&#xe3;" horiz-adv-x="512" 
d="M46 426q0 15 1 32q93 50 200 50t153.5 -40.5t46.5 -134.5v-213q35 -7 55 -17v-87q-51 -24 -146 -24q-10 26 -17 63q-43 -63 -156 -63q-67 0 -114.5 39t-47.5 106t44.5 105.5t132.5 38.5h109v48q0 78 -83 78q-31 0 -51 -6q-2 -42 -12 -65h-98q-17 35 -17 90zM226 94
q51 0 81 30v82h-70q-72 0 -72 -55q0 -25 15.5 -41t45.5 -16zM99.5 696q31.5 18 65 18t78.5 -14t75 -14q57 0 93 21l12 7l40 -63q-4 -6 -21.5 -21t-33.5 -24q-41 -24 -78 -24t-84.5 14t-72.5 14q-43 0 -79 -20l-12 -7l-38 66q5 7 14.5 18t41 29z" />
    <glyph glyph-name="adieresis" unicode="&#xe4;" horiz-adv-x="512" 
d="M46 426q0 15 1 32q93 50 200 50t153.5 -40.5t46.5 -134.5v-213q35 -7 55 -17v-87q-51 -24 -146 -24q-10 26 -17 63q-43 -63 -156 -63q-67 0 -114.5 39t-47.5 106t44.5 105.5t132.5 38.5h109v48q0 78 -83 78q-31 0 -51 -6q-2 -42 -12 -65h-98q-17 35 -17 90zM226 94
q51 0 81 30v82h-70q-72 0 -72 -55q0 -25 15.5 -41t45.5 -16zM47 699q0 76 81.5 76t81.5 -75.5t-82 -75.5q-40 0 -60.5 17t-20.5 58zM287 699q0 76 81.5 76t81.5 -75.5t-82 -75.5q-40 0 -60.5 17t-20.5 58z" />
    <glyph glyph-name="aring" unicode="&#xe5;" horiz-adv-x="512" 
d="M46 426q0 15 1 32q93 50 200 50t153.5 -40.5t46.5 -134.5v-213q35 -7 55 -17v-87q-51 -24 -146 -24q-10 26 -17 63q-43 -63 -156 -63q-67 0 -114.5 39t-47.5 106t44.5 105.5t132.5 38.5h109v48q0 78 -83 78q-31 0 -51 -6q-2 -42 -12 -65h-98q-17 35 -17 90zM226 94
q51 0 81 30v82h-70q-72 0 -72 -55q0 -25 15.5 -41t45.5 -16zM160.5 605q-31.5 24 -31.5 83t32 83.5t90 24.5q125 0 125 -109q0 -106 -125 -106q-59 0 -90.5 24zM194 688q0 -51 58.5 -51t58.5 51q0 53 -58.5 53t-58.5 -53z" />
    <glyph glyph-name="ae" unicode="&#xe6;" horiz-adv-x="767" 
d="M47 435q0 11 1 23q39 21 99 35.5t113 14.5q97 0 143 -42q60 42 151.5 42t138 -45.5t46.5 -172.5v-24q0 -21 -11.5 -33.5t-30.5 -12.5h-244q9 -121 105 -121q77 0 143 26l34 -73q-81 -60 -194.5 -60t-171.5 58q-76 -58 -194 -58q-65 0 -109 35.5t-44 104.5q0 87 60 114.5
t205 27.5h21v22q0 65 -19 88t-64 23q-25 0 -52 -8q-3 -37 -17 -63h-88q-21 42 -21 99zM166 142q0 -47 50 -47t92 23v74h-16q-76 0 -101 -9.5t-25 -40.5zM548 406q-80 0 -92 -103l145 9q0 94 -53 94z" />
    <glyph glyph-name="ccedilla" unicode="&#xe7;" horiz-adv-x="451" 
d="M262 406q-92 0 -92 -158q0 -80 25.5 -111.5t73.5 -31.5q76 0 134 14l30 -77q-61 -38 -158 -48q-5 -17 -5 -29q65 -7 65 -76q0 -95 -149 -106l-16 54q33 12 46 22t13 29t-12 29t-30 11q-2 9 -2 26t12 42q-171 24 -171 246q0 146 75 210q67 56 163 56t160 -36q1 -10 1 -19
q0 -57 -26 -108h-88q-14 25 -17 60q-12 1 -32 1z" />
    <glyph glyph-name="egrave" unicode="&#xe8;" horiz-adv-x="483" 
d="M266 -8q-120 0 -180.5 64t-60.5 186q0 74 21 127.5t57 82.5q70 56 163 56t142.5 -47.5t49.5 -170.5q0 -72 -71 -72h-217q4 -63 32.5 -89t90.5 -26q34 0 65 8t45 16l14 8l30 -80q-6 -7 -17.5 -17.5t-58 -28t-105.5 -17.5zM329 307q2 14 2 34t-16 42.5t-55.5 22.5
t-60.5 -24t-28 -81zM322 600l-54 -31q-41 26 -84 74.5t-57 88.5l104 64q29 -29 57 -90.5t34 -105.5z" />
    <glyph glyph-name="eacute" unicode="&#xe9;" horiz-adv-x="483" 
d="M266 -8q-120 0 -180.5 64t-60.5 186q0 74 21 127.5t57 82.5q70 56 163 56t142.5 -47.5t49.5 -170.5q0 -72 -71 -72h-217q4 -63 32.5 -89t90.5 -26q34 0 65 8t45 16l14 8l30 -80q-6 -7 -17.5 -17.5t-58 -28t-105.5 -17.5zM329 307q2 14 2 34t-16 42.5t-55.5 22.5
t-60.5 -24t-28 -81zM267 569l-54 31q6 44 34 105.5t57 90.5l104 -64q-14 -40 -57 -88.5t-84 -74.5z" />
    <glyph glyph-name="ecircumflex" unicode="&#xea;" horiz-adv-x="483" 
d="M266 -8q-120 0 -180.5 64t-60.5 186q0 74 21 127.5t57 82.5q70 56 163 56t142.5 -47.5t49.5 -170.5q0 -72 -71 -72h-217q4 -63 32.5 -89t90.5 -26q34 0 65 8t45 16l14 8l30 -80q-6 -7 -17.5 -17.5t-58 -28t-105.5 -17.5zM329 307q2 14 2 34t-16 42.5t-55.5 22.5
t-60.5 -24t-28 -81zM412 610l-36 -41q-46 13 -124 80q-78 -67 -124 -80l-36 41q13 35 64 89.5t96 84.5q45 -30 96 -84.5t64 -89.5z" />
    <glyph glyph-name="edieresis" unicode="&#xeb;" horiz-adv-x="483" 
d="M266 -8q-120 0 -180.5 64t-60.5 186q0 74 21 127.5t57 82.5q70 56 163 56t142.5 -47.5t49.5 -170.5q0 -72 -71 -72h-217q4 -63 32.5 -89t90.5 -26q34 0 65 8t45 16l14 8l30 -80q-6 -7 -17.5 -17.5t-58 -28t-105.5 -17.5zM329 307q2 14 2 34t-16 42.5t-55.5 22.5
t-60.5 -24t-28 -81zM48 699q0 76 81.5 76t81.5 -75.5t-82 -75.5q-40 0 -60.5 17t-20.5 58zM258 699q0 76 81.5 76t81.5 -75.5t-82 -75.5q-40 0 -60.5 17t-20.5 58z" />
    <glyph glyph-name="igrave" unicode="&#xec;" horiz-adv-x="292" 
d="M38 500q56 13 104 13t81 -3v-399q39 -15 55 -34l-10 -77h-230l-10 77q14 19 55 34v278q-35 12 -55 34zM217 600l-54 -31q-41 26 -84 74.5t-57 88.5l104 64q29 -29 57 -90.5t34 -105.5z" />
    <glyph glyph-name="iacute" unicode="&#xed;" horiz-adv-x="292" 
d="M115 569l-54 31q6 44 34 105.5t57 90.5l104 -64q-14 -40 -57 -88.5t-84 -74.5zM38 500q56 13 104 13t81 -3v-399q39 -15 55 -34l-10 -77h-230l-10 77q14 19 55 34v278q-35 12 -55 34z" />
    <glyph glyph-name="icircumflex" unicode="&#xee;" horiz-adv-x="292" 
d="M38 500q56 13 104 13t81 -3v-399q39 -15 55 -34l-10 -77h-230l-10 77q14 19 55 34v278q-35 12 -55 34zM307 610l-36 -41q-46 13 -124 80q-78 -67 -124 -80l-36 41q13 35 64 89.5t96 84.5q45 -30 96 -84.5t64 -89.5z" />
    <glyph glyph-name="idieresis" unicode="&#xef;" horiz-adv-x="292" 
d="M-27 699q0 72 77.5 72t77.5 -71.5t-78 -71.5q-38 0 -57.5 16t-19.5 55zM163 699.5q0 71.5 77.5 71.5t77.5 -71.5t-77.5 -71.5t-77.5 71.5zM38 500q56 13 104 13t81 -3v-399q39 -15 55 -34l-10 -77h-230l-10 77q14 19 55 34v278q-35 12 -55 34z" />
    <glyph glyph-name="eth" unicode="&#xf0;" horiz-adv-x="525" 
d="M497 286q0 -130 -60 -212t-166 -82q-126 0 -185 53.5t-59 169t58.5 179.5t151.5 64q54 0 100 -17q-13 51 -38 92l-44 -39l-54 36q2 32 31 57l15 13q-6 7 -49 44l67 84q33 -20 70 -50l49 44l54 -36q-1 -31 -31 -57l-13 -12q103 -130 103 -331zM353 292q0 19 -2 51
q-37 17 -96 17q-84 0 -84 -129q0 -69 21 -106t72.5 -37t70 50t18.5 154z" />
    <glyph glyph-name="ntilde" unicode="&#xf1;" horiz-adv-x="595" 
d="M36 500q55 12 99 12t73 -2v-50q25 21 66.5 34.5t79.5 13.5q98 0 137.5 -46t39.5 -159v-192q39 -15 55 -34l-10 -77h-230l-10 77q14 19 55 34v198q0 54 -17.5 72.5t-62.5 18.5t-90 -32v-257q39 -15 55 -34l-10 -77h-230l-10 77q14 19 55 34v278q-35 12 -55 34zM136.5 696
q31.5 18 64.5 18t79 -14t76 -14q56 0 92 21l12 7l40 -63q-4 -6 -21.5 -21t-32.5 -24q-42 -24 -79 -24t-84.5 14t-72.5 14q-43 0 -80 -20l-11 -7l-38 66q5 7 14.5 18t41 29z" />
    <glyph glyph-name="ograve" unicode="&#xf2;" 
d="M82 55q-57 63 -57 190.5t63.5 195t182.5 67.5t176.5 -60t57.5 -187.5t-64.5 -198t-183 -70.5t-175.5 63zM169 254q0 -160 96 -160q49 0 72.5 36.5t23.5 119.5q0 156 -98 156q-48 0 -71 -34.5t-23 -117.5zM325 600l-54 -31q-41 26 -84 74.5t-57 88.5l104 64
q29 -29 57 -90.5t34 -105.5z" />
    <glyph glyph-name="oacute" unicode="&#xf3;" 
d="M82 55q-57 63 -57 190.5t63.5 195t182.5 67.5t176.5 -60t57.5 -187.5t-64.5 -198t-183 -70.5t-175.5 63zM169 254q0 -160 96 -160q49 0 72.5 36.5t23.5 119.5q0 156 -98 156q-48 0 -71 -34.5t-23 -117.5zM216 600q6 44 34 105.5t57 90.5l104 -64q-14 -40 -57 -88.5
t-84 -74.5q-54 29 -54 31z" />
    <glyph glyph-name="ocircumflex" unicode="&#xf4;" 
d="M82 55q-57 63 -57 190.5t63.5 195t182.5 67.5t176.5 -60t57.5 -187.5t-64.5 -198t-183 -70.5t-175.5 63zM169 254q0 -160 96 -160q49 0 72.5 36.5t23.5 119.5q0 156 -98 156q-48 0 -71 -34.5t-23 -117.5zM425 610l-36 -41q-46 13 -124 80q-78 -67 -124 -80l-36 41
q13 35 64 89.5t96 84.5q45 -30 96 -84.5t64 -89.5z" />
    <glyph glyph-name="otilde" unicode="&#xf5;" 
d="M82 55q-57 63 -57 190.5t63.5 195t182.5 67.5t176.5 -60t57.5 -187.5t-64.5 -198t-183 -70.5t-175.5 63zM169 254q0 -160 96 -160q49 0 72.5 36.5t23.5 119.5q0 156 -98 156q-48 0 -71 -34.5t-23 -117.5zM109.5 696q31.5 18 65 18t78.5 -14t75 -14q57 0 93 21l12 7
l40 -63q-4 -6 -21.5 -21t-33.5 -24q-41 -24 -78 -24t-84.5 14t-72.5 14q-43 0 -79 -20l-12 -7l-38 66q5 7 14.5 18t41 29z" />
    <glyph glyph-name="odieresis" unicode="&#xf6;" 
d="M82 55q-57 63 -57 190.5t63.5 195t182.5 67.5t176.5 -60t57.5 -187.5t-64.5 -198t-183 -70.5t-175.5 63zM169 254q0 -160 96 -160q49 0 72.5 36.5t23.5 119.5q0 156 -98 156q-48 0 -71 -34.5t-23 -117.5zM65 699q0 76 81.5 76t81.5 -75.5t-82 -75.5q-40 0 -60.5 17
t-20.5 58zM305 699q0 76 81.5 76t81.5 -75.5t-82 -75.5q-40 0 -60.5 17t-20.5 58z" />
    <glyph glyph-name="divide" unicode="&#xf7;" horiz-adv-x="509" 
d="M394 208h-359l-10 58q31 35 90 35h359l10 -58q-30 -35 -90 -35zM177 86q0 72 77.5 72t77.5 -72q0 -39 -20 -55.5t-58 -16.5t-57.5 16.5t-19.5 55.5zM177 422q0 73 77.5 73t77.5 -73q0 -71 -78 -71q-38 0 -57.5 16t-19.5 55z" />
    <glyph glyph-name="oslash" unicode="&#xf8;" horiz-adv-x="563" 
d="M42 248q0 125 63.5 192.5t174.5 67.5t167 -44l87 85l35 -24q0 -49 -43 -91l-31 -30q27 -57 27 -146q0 -125 -64.5 -195.5t-174 -70.5t-166.5 45l-86 -84l-36 24q1 50 43 91l32 31q-28 56 -28 149zM378 250q0 15 -2 39l-163 -159q23 -36 70.5 -36t71 36.5t23.5 119.5z
M186 254q0 -29 1 -41l164 159q-24 34 -71.5 34t-70.5 -34.5t-23 -117.5z" />
    <glyph glyph-name="ugrave" unicode="&#xf9;" horiz-adv-x="588" 
d="M395 42q-69 -50 -162.5 -50t-130.5 39t-37 127v231q-35 12 -55 34l10 77q56 13 104 13t81 -3v-319q0 -54 16.5 -71.5t65.5 -17.5t91 32v255q-35 12 -55 34l10 77q56 13 104 13t81 -3v-390q35 -7 55 -17v-79q-60 -32 -151 -32q-25 18 -27 50zM347 600l-54 -31
q-41 26 -84 74.5t-57 88.5l104 64q29 -29 57 -90.5t34 -105.5z" />
    <glyph glyph-name="uacute" unicode="&#xfa;" horiz-adv-x="588" 
d="M395 42q-69 -50 -162.5 -50t-130.5 39t-37 127v231q-35 12 -55 34l10 77q56 13 104 13t81 -3v-319q0 -54 16.5 -71.5t65.5 -17.5t91 32v255q-35 12 -55 34l10 77q56 13 104 13t81 -3v-390q35 -7 55 -17v-79q-60 -32 -151 -32q-25 18 -27 50zM263 569l-54 31
q6 44 34 105.5t57 90.5l104 -64q-14 -40 -57 -88.5t-84 -74.5z" />
    <glyph glyph-name="ucircumflex" unicode="&#xfb;" horiz-adv-x="588" 
d="M395 42q-69 -50 -162.5 -50t-130.5 39t-37 127v231q-35 12 -55 34l10 77q56 13 104 13t81 -3v-319q0 -54 16.5 -71.5t65.5 -17.5t91 32v255q-35 12 -55 34l10 77q56 13 104 13t81 -3v-390q35 -7 55 -17v-79q-60 -32 -151 -32q-25 18 -27 50zM454 610l-36 -41
q-46 13 -124 80q-78 -67 -124 -80l-36 41q13 35 64 89.5t96 84.5q45 -30 96 -84.5t64 -89.5z" />
    <glyph glyph-name="udieresis" unicode="&#xfc;" horiz-adv-x="588" 
d="M395 42q-69 -50 -162.5 -50t-130.5 39t-37 127v231q-35 12 -55 34l10 77q56 13 104 13t81 -3v-319q0 -54 16.5 -71.5t65.5 -17.5t91 32v255q-35 12 -55 34l10 77q56 13 104 13t81 -3v-390q35 -7 55 -17v-79q-60 -32 -151 -32q-25 18 -27 50zM73 699q0 76 81.5 76
t81.5 -75.5t-82 -75.5q-40 0 -60.5 17t-20.5 58zM313 699q0 76 81.5 76t81.5 -75.5t-82 -75.5q-40 0 -60.5 17t-20.5 58z" />
    <glyph glyph-name="yacute" unicode="&#xfd;" horiz-adv-x="568" 
d="M161 -116q18 0 38.5 33.5t28.5 79.5l-164 388q-49 16 -66 38l10 77h230l10 -77q-13 -16 -44 -29l55 -151q18 -47 25 -93l3 -14h14q8 50 28 105l53 148q-37 14 -52 34l10 77h220l10 -77q-18 -23 -66 -39l-165 -390q-47 -111 -72 -143q-44 -59 -122.5 -59t-119.5 41
q-1 10 -1 20q0 55 23 104h83q15 -27 17 -73h14zM275 569l-54 31q6 44 34 105.5t57 90.5l104 -64q-14 -40 -57 -88.5t-84 -74.5z" />
    <glyph glyph-name="thorn" unicode="&#xfe;" horiz-adv-x="536" 
d="M5 710q56 13 104 13t81 -3v-250q23 16 57.5 27t61.5 11q110 0 155.5 -56t45.5 -195t-68.5 -202t-169.5 -63q-48 0 -82 9v-87q59 -16 76 -37l-10 -77h-251l-10 77q13 18 55 34v688q-35 12 -55 34zM270 94q96 0 96 161q0 86 -16.5 118.5t-57.5 32.5q-59 0 -102 -38v-265
q36 -9 80 -9z" />
    <glyph glyph-name="ydieresis" unicode="&#xff;" horiz-adv-x="568" 
d="M161 -116q18 0 38.5 33.5t28.5 79.5l-164 388q-49 16 -66 38l10 77h230l10 -77q-13 -16 -44 -29l55 -151q18 -47 25 -93l3 -14h14q8 50 28 105l53 148q-37 14 -52 34l10 77h220l10 -77q-18 -23 -66 -39l-165 -390q-47 -111 -72 -143q-44 -59 -122.5 -59t-119.5 41
q-1 10 -1 20q0 55 23 104h83q15 -27 17 -73h14zM92 699q0 76 81.5 76t81.5 -75.5t-82 -75.5q-40 0 -60.5 17t-20.5 58zM332 699q0 76 81.5 76t81.5 -75.5t-82 -75.5q-40 0 -60.5 17t-20.5 58z" />
    <glyph glyph-name="dotlessi" unicode="&#x131;" horiz-adv-x="292" 
d="M38 500q56 13 104 13t81 -3v-399q39 -15 55 -34l-10 -77h-230l-10 77q14 19 55 34v278q-35 12 -55 34z" />
    <glyph glyph-name="Lslash" unicode="&#x141;" horiz-adv-x="504" 
d="M233 109h158q13 52 37 74l74 -9v-174h-458l-10 83q13 17 55 33v178l-69 -25l-23 37q6 15 29.5 35.5t47.5 29.5l15 5v197q-41 15 -55 34l10 83h234l10 -83q-16 -19 -55 -34v-146l132 47l22 -37q-6 -16 -28.5 -35.5t-47.5 -28.5l-78 -28v-236z" />
    <glyph glyph-name="lslash" unicode="&#x142;" horiz-adv-x="295" 
d="M33 710q56 13 104 13t81 -3v-282l71 25l22 -37q-6 -16 -28.5 -35.5t-47.5 -28.5l-17 -6v-245q39 -15 55 -34l-10 -77h-230l-10 77q14 19 55 34v196l-71 -25l-23 37q6 15 29.5 36t47.5 29l17 5v210q-35 12 -55 34z" />
    <glyph glyph-name="OE" unicode="&#x152;" horiz-adv-x="871" 
d="M838 0h-436q-51 -8 -102 -8q-140 0 -204.5 81t-64.5 270q0 355 283 355q56 0 98 -8h418v-174l-74 -9q-23 20 -37 74h-154v-172h137q12 30 25 42l63 -7v-178l-63 -8q-13 10 -25 42h-137v-191h162q13 52 37 74l74 -9v-174zM181 352q0 -132 32 -189.5t95 -57.5t115 12v449
q-51 19 -116.5 19t-95.5 -50.5t-30 -182.5z" />
    <glyph glyph-name="oe" unicode="&#x153;" horiz-adv-x="820" 
d="M594 -8q-57 0 -103.5 16.5t-65.5 47.5q-20 -31 -66 -47.5t-101 -16.5q-119 0 -176 63t-57 190.5t63.5 195t187.5 67.5t165 -66q49 66 164 66q94 0 140.5 -45.5t46.5 -172.5v-24q0 -21 -11.5 -33.5t-30.5 -12.5h-244q9 -121 105 -121q77 0 143 26l34 -73q-81 -60 -194 -60
zM169 254q0 -160 96 -160q47 0 71.5 35.5t24.5 120t-25.5 120.5t-73 36t-70.5 -34.5t-23 -117.5zM601 406q-78 0 -92 -95l145 9q0 45 -12 65.5t-41 20.5z" />
    <glyph glyph-name="Scaron" unicode="&#x160;" horiz-adv-x="538" 
d="M393 956l36 -41q-13 -35 -64 -89.5t-96 -84.5q-45 30 -96 84.5t-64 89.5l36 41q49 -16 124 -80q75 64 124 80zM340 581q-34 9 -71 9t-59.5 -18.5t-22.5 -52t17 -52.5t67 -33l89 -26q72 -21 114.5 -65.5t42.5 -130.5q0 -102 -73.5 -161t-182.5 -59q-60 0 -123.5 15.5
t-105.5 43.5v23t7 58t20 67h95q16 -31 19 -83q35 -15 81.5 -15t76.5 22t30 63q0 19 -3 31.5t-18.5 27t-44.5 23.5l-103 30q-157 45 -157 200q0 91 66 145.5t172.5 54.5t208.5 -48v-23t-7 -58t-20 -67h-95q-17 24 -20 79z" />
    <glyph glyph-name="scaron" unicode="&#x161;" horiz-adv-x="451" 
d="M226 418q-66 0 -66 -39q0 -37 69 -55l79 -21q122 -32 122 -141q0 -75 -52.5 -122.5t-167 -47.5t-178.5 32q-1 11 -1 22q0 55 22 99h83q13 -24 17 -50q20 -6 57 -6q88 0 88 50q0 16 -12 26.5t-47 20.5l-79 23q-61 17 -95 50.5t-34 99t53 107.5t151.5 42t166.5 -29
q1 -10 1 -20q0 -52 -22 -96h-82q-13 23 -17 48q-28 7 -56 7zM341 785l36 -41q-13 -35 -64 -89.5t-96 -84.5q-45 30 -96 84.5t-64 89.5l36 41q49 -16 124 -80q75 64 124 80z" />
    <glyph glyph-name="Ydieresis" unicode="&#x178;" horiz-adv-x="588" 
d="M97 818q0 76 81.5 76t81.5 -75.5t-82 -75.5q-40 0 -60.5 17t-20.5 58zM337 818q0 76 81.5 76t81.5 -75.5t-82 -75.5q-40 0 -60.5 17t-20.5 58zM412 0h-234l-10 83q13 17 55 33v115l-163 339q-47 16 -64 37l9 78v1l1 4h234l10 -83q-12 -17 -46 -30l34 -77q29 -66 50 -131
l7 -20h15q21 73 55 151l32 73q-40 16 -54 34l10 83h228l10 -83q-20 -23 -66 -38l-158 -338v-115q40 -16 55 -33z" />
    <glyph glyph-name="Zcaron" unicode="&#x17d;" horiz-adv-x="570" 
d="M423 956l36 -41q-13 -35 -64 -89.5t-96 -84.5q-45 30 -96 84.5t-64 89.5l36 41q49 -16 124 -80q75 64 124 80zM269 590h-93q-7 -55 -25 -86l-95 6q-22 38 -22 118q0 34 7 62h487l10 -79l-290 -435q-27 -42 -56 -66l-11 -8l5 -11q46 9 98 9h122q7 55 25 86l95 -6
q22 -38 22 -118q0 -34 -7 -62h-516l-10 79l290 435q27 42 57 66l10 8l-5 11q-46 -9 -98 -9z" />
    <glyph glyph-name="zcaron" unicode="&#x17e;" horiz-adv-x="479" 
d="M42 358q-11 50 -11 86.5t1 55.5h405l10 -84l-195 -249q-27 -36 -59 -62l5 -11q29 9 81 9h55q15 36 33 53l77 -10q11 -50 11 -88t-1 -58h-423l-10 82l196 252q27 36 59 62l-5 11q-29 -9 -81 -9h-39q-15 -34 -32 -50zM362 785l36 -41q-13 -35 -64 -89.5t-96 -84.5
q-45 30 -96 84.5t-64 89.5l36 41q49 -16 124 -80q75 64 124 80z" />
    <glyph glyph-name="florin" unicode="&#x192;" horiz-adv-x="637" 
d="M455 626q-38 0 -55 -21t-17 -76v-84h153v-92h-153v-353q0 -116 -43.5 -162t-141.5 -46t-169 52q-1 9 -1 18q0 54 26 105h86q18 -30 20 -72q6 -1 17 -1q35 0 50.5 21t15.5 76v362h-44l-11 69q22 20 55 23v74q0 103 45.5 156t148 53t174.5 -53q1 -9 1 -19q0 -56 -26 -107
h-88q-18 33 -19 75q-16 2 -24 2z" />
    <glyph glyph-name="circumflex" unicode="&#x2c6;" horiz-adv-x="500" 
d="M422 610l-36 -41q-46 13 -124 80q-78 -67 -124 -80l-36 41q13 35 64 89.5t96 84.5q45 -30 96 -84.5t64 -89.5z" />
    <glyph glyph-name="caron" unicode="&#x2c7;" horiz-adv-x="500" 
d="M386 785l36 -41q-13 -35 -64 -89.5t-96 -84.5q-45 30 -96 84.5t-64 89.5l36 41q49 -16 124 -80q75 64 124 80z" />
    <glyph glyph-name="breve" unicode="&#x2d8;" horiz-adv-x="501" 
d="M81 726h91q0 -38 22.5 -57.5t61 -19.5t62.5 19.5t24 57.5h90q0 -161 -175.5 -161t-175.5 161z" />
    <glyph glyph-name="dotaccent" unicode="&#x2d9;" horiz-adv-x="267" 
d="M50 672.5q0 75.5 83.5 75.5t83.5 -75.5t-83.5 -75.5t-83.5 75.5z" />
    <glyph glyph-name="ring" unicode="&#x2da;" horiz-adv-x="501" 
d="M155.5 605q-31.5 24 -31.5 83t32 83.5t90 24.5q125 0 125 -109q0 -106 -125 -106q-59 0 -90.5 24zM189 688q0 -51 58.5 -51t58.5 51q0 53 -58.5 53t-58.5 -53z" />
    <glyph glyph-name="ogonek" unicode="&#x2db;" horiz-adv-x="276" 
d="M194 -247q-71 0 -117.5 24t-46.5 85t52 110.5t120 65.5l44 -38q-38 -18 -65.5 -43.5t-27.5 -51.5q0 -47 74 -54l-5 -97q-15 -1 -28 -1z" />
    <glyph glyph-name="tilde" unicode="&#x2dc;" horiz-adv-x="544" 
d="M126.5 696q31.5 18 64.5 18t79 -14t76 -14q56 0 92 21l12 7l40 -63q-4 -6 -21.5 -21t-32.5 -24q-42 -24 -79 -24t-84.5 14t-72.5 14q-43 0 -80 -20l-11 -7l-38 66q5 7 14.5 18t41 29z" />
    <glyph glyph-name="hungarumlaut" unicode="&#x2dd;" horiz-adv-x="432" 
d="M125 821q12 9 23 9t20 -3q25 -9 34 -31q5 -10 5 -22t-7 -27q-39 -69 -162 -136l-32 36zM327 821q12 9 23 9t20 -3q25 -9 34 -31q5 -10 5 -22t-7 -27q-39 -69 -162 -136l-32 36z" />
    <glyph glyph-name="endash" unicode="&#x2013;" horiz-adv-x="528" 
d="M393 220h-337l-10 64q31 35 90 35h337l10 -64q-30 -35 -90 -35z" />
    <glyph glyph-name="emdash" unicode="&#x2014;" horiz-adv-x="754" 
d="M619 220h-563l-10 64q31 35 90 35h563l10 -64q-30 -35 -90 -35z" />
    <glyph glyph-name="quoteleft" unicode="&#x2018;" horiz-adv-x="233" 
d="M200 483q0 -76 -85 -76t-85 76q0 67 34 124.5t82 91.5l42 -26q-33 -55 -33 -108q0 -8 1 -15q19 -6 31.5 -24.5t12.5 -42.5z" />
    <glyph glyph-name="quoteright" unicode="&#x2019;" horiz-adv-x="231" 
d="M34 623q0 76 85 76t85 -76q0 -67 -34 -124.5t-82 -91.5l-42 26q33 55 33 108q0 8 -1 15q-19 6 -31.5 24.5t-12.5 42.5z" />
    <glyph glyph-name="quotesinglbase" unicode="&#x201a;" horiz-adv-x="244" 
d="M36 65q0 76 85 76t85 -76q0 -67 -34 -124.5t-82 -91.5l-42 26q33 55 33 108q0 8 -1 15q-19 6 -31.5 24.5t-12.5 42.5z" />
    <glyph glyph-name="quotedblleft" unicode="&#x201c;" horiz-adv-x="450" 
d="M200 483q0 -76 -85 -76t-85 76q0 67 34 124.5t82 91.5l42 -26q-33 -55 -33 -108q0 -8 1 -15q19 -6 31.5 -24.5t12.5 -42.5zM417 483q0 -76 -85 -76t-85 76q0 67 34 124.5t82 91.5l42 -26q-33 -55 -33 -108q0 -8 1 -15q19 -6 31.5 -24.5t12.5 -42.5z" />
    <glyph glyph-name="quotedblright" unicode="&#x201d;" horiz-adv-x="448" 
d="M251 623q0 76 85 76t85 -76q0 -67 -34 -124.5t-82 -91.5l-42 26q33 55 33 108q0 8 -1 15q-19 6 -31.5 24.5t-12.5 42.5zM34 623q0 76 85 76t85 -76q0 -67 -34 -124.5t-82 -91.5l-42 26q33 55 33 108q0 8 -1 15q-19 6 -31.5 24.5t-12.5 42.5z" />
    <glyph glyph-name="quotedblbase" unicode="&#x201e;" horiz-adv-x="478" 
d="M270 65q0 76 85 76t85 -76q0 -67 -34 -124.5t-82 -91.5l-42 26q33 55 33 108q0 8 -1 15q-19 6 -31.5 24.5t-12.5 42.5zM36 65q0 76 85 76t85 -76q0 -67 -34 -124.5t-82 -91.5l-42 26q33 55 33 108q0 8 -1 15q-19 6 -31.5 24.5t-12.5 42.5z" />
    <glyph glyph-name="dagger" unicode="&#x2020;" horiz-adv-x="516" 
d="M224 -126q-32 128 -32 353q0 76 12 181q-78 -20 -119 -20t-61 3v111q18 3 58 3t121 -20q-13 85 -13 132t3 73h130q3 -24 3 -70.5t-14 -134.5q82 20 122 20t58 -3v-111q-21 -3 -62 -3t-119 20q13 -83 13 -178q0 -115 -10 -211t-22 -145h-68z" />
    <glyph glyph-name="daggerdbl" unicode="&#x2021;" 
d="M203 86q0 53 7 105q-75 -19 -116.5 -19t-62.5 3v111q18 3 57 3t120 -20q-7 37 -7 77t8 82q-77 -20 -117.5 -20t-60.5 3v111q18 3 58 3t121 -20q-13 81 -13 122.5t3 62.5h130q2 -20 2 -61t-13 -124q82 20 122 20t58 -3v-111q-20 -3 -61 -3t-118 20q8 -42 8 -82t-7 -77
q81 20 120.5 20t57.5 -3v-111q-23 -4 -65 -4t-115 20q7 -51 7 -103q0 -105 -27 -214h-68q-28 108 -28 212z" />
    <glyph glyph-name="bullet" unicode="&#x2022;" horiz-adv-x="361" 
d="M92 181.5q-30 24.5 -30 82t30 82.5t88 25q119 0 119 -108q0 -106 -119 -106q-58 0 -88 24.5z" />
    <glyph glyph-name="ellipsis" unicode="&#x2026;" horiz-adv-x="812" 
d="M37 65.5q0 75.5 83.5 75.5t83.5 -75.5t-83.5 -75.5t-83.5 75.5zM323 65.5q0 75.5 83.5 75.5t83.5 -75.5t-83.5 -75.5t-83.5 75.5zM609 65.5q0 75.5 83.5 75.5t83.5 -75.5t-83.5 -75.5t-83.5 75.5z" />
    <glyph glyph-name="perthousand" unicode="&#x2030;" horiz-adv-x="1246" 
d="M218 -5q-5 16 -5 40.5t19 58.5l332 626l63 -22q5 -16 5 -40t-19 -60l-332 -625zM26 507q0 97 50 146t132.5 49t128.5 -43.5t46 -142.5t-50.5 -150t-132.5 -51q-174 0 -174 192zM159.5 597q-11.5 -20 -11.5 -85.5t13 -89t44.5 -23.5t43.5 22t12 87.5t-13 87t-45 21.5
t-43.5 -20zM465 184q0 97 50 146t132.5 49t128.5 -43.5t46 -142.5t-50.5 -150t-132.5 -51q-174 0 -174 192zM598.5 274q-11.5 -20 -11.5 -85.5t13 -89t44.5 -23.5t43.5 22t12 87.5t-13 87t-45 21.5t-43.5 -20zM864 184q0 97 50 146t132.5 49t128.5 -43.5t46 -142.5
t-50.5 -150t-132.5 -51q-174 0 -174 192zM997.5 274q-11.5 -20 -11.5 -85.5t13 -89t44.5 -23.5t43.5 22t12 87.5t-13 87t-45 21.5t-43.5 -20z" />
    <glyph glyph-name="guilsinglleft" unicode="&#x2039;" horiz-adv-x="308" 
d="M227 457l47 -35q-9 -32 -37.5 -81.5t-63.5 -93.5q79 -98 101 -174l-47 -35q-41 17 -105 83.5t-98 125.5q34 59 98 125.5t105 84.5z" />
    <glyph glyph-name="guilsinglright" unicode="&#x203a;" horiz-adv-x="308" 
d="M34 422l47 35q41 -18 105 -84.5t98 -125.5q-34 -59 -98 -125.5t-105 -83.5l-47 35q22 76 101 174q-35 44 -63.5 93.5t-37.5 81.5z" />
    <glyph glyph-name="fraction" unicode="&#x2044;" horiz-adv-x="415" 
d="M4 -1q-15 47 14 99l330 622l63 -22q5 -16 5 -40t-19 -60l-330 -621z" />
    <glyph glyph-name="Euro" unicode="&#x20ac;" horiz-adv-x="648" 
d="M477 566q-40 19 -84 19t-76 -29.5t-45 -100.5h203l10 -52q-30 -35 -90 -35h-131q0 -47 1 -61h210l10 -52q-30 -35 -90 -35h-118q14 -58 44 -83t77 -25q101 0 182 32l34 -89q-100 -63 -239 -63q-108 0 -167.5 53.5t-77.5 174.5h-94l-10 52q31 35 90 35h6v61h-86l-10 52
q31 35 90 35h15q21 122 92 182.5t180 60.5t208 -63v-24t-6.5 -57.5t-18.5 -66.5h-90q-14 26 -19 79z" />
    <glyph glyph-name="trademark" unicode="&#x2122;" horiz-adv-x="896" 
d="M508 456v-48q18 -8 26 -24l-5 -57h-127l-6 58q9 14 27 24v199q-17 8 -29 23l9 59h134l71 -178q8 -24 12 -50h8q2 24 12 50l68 178h135l6 -59q-9 -14 -29 -24v-197q18 -7 28 -21l-6 -62h-143l-6 62q11 14 29 22v50l3 46l-8 1q-3 -21 -12 -46l-46 -135h-88l-47 133l-12 45
l-8 -1q4 -22 4 -48zM255 600v-190q18 -7 29 -23l-9 -60h-143l-9 60q13 16 30 23v190h-34q-7 -14 -21 -21l-49 5v117l49 6q13 -7 21 -22h171q6 13 16 22l53 -6v-117l-51 -5q-12 8 -17 21h-36z" />
    <glyph glyph-name="minus" unicode="&#x2212;" horiz-adv-x="528" 
d="M393 220h-337l-10 64q31 35 90 35h337l10 -64q-30 -35 -90 -35z" />
    <glyph glyph-name="fi" unicode="&#xfb01;" horiz-adv-x="619" 
d="M484 563q-27 0 -49 12t-28.5 20t-17.5 23q-39 8 -86.5 8t-64.5 -21t-17 -76v-44h144q56 13 104 13t81 -3v-384q39 -15 55 -34l-10 -77h-230l-10 77q14 19 55 34v282h-189v-280q43 -15 66 -36l-10 -77h-241l-10 77q14 19 55 34v282h-44l-11 69q22 20 55 23v53
q0 99 50 144.5t162 45.5t190.5 -21t78.5 -71q0 -73 -78 -73z" />
    <glyph glyph-name="fl" unicode="&#xfb02;" horiz-adv-x="637" 
d="M80 519q0 103 45.5 156t149.5 53q51 0 105 -18q64 12 111.5 12t75.5 -2v-609q39 -15 55 -34l-10 -77h-230l-10 77q14 19 55 34v484q-74 31 -122.5 31t-66.5 -21t-18 -76v-84h153v-92h-153v-237q75 -15 102 -39l-10 -77h-277l-10 77q14 19 55 34v242h-44l-11 69
q22 20 55 23v74z" />
    <glyph glyph-name="j.alt" horiz-adv-x="260" 
d="M25 500q56 13 104 13t81 -3v-510h-1q-4 -117 -45.5 -162.5t-139 -45.5t-168.5 52q-1 9 -1 18q0 54 26 105h86q18 -30 20 -72q5 -1 17 -1q35 0 50.5 21t15.5 76v398q-35 12 -55 34zM55 644.5q0 75.5 83.5 75.5t83.5 -75.5t-83.5 -75.5t-83.5 75.5z" />
    <glyph glyph-name="r.alt" horiz-adv-x="462" 
d="M310 405q-56 0 -91 -56v-230q81 -15 111 -42l-10 -77h-286l-10 77q14 19 55 34v289q-1 0 -3 2l-52 21l10 77q55 12 99 12t73 -2v-68q18 30 51.5 48t73.5 18q85 0 122 -49q1 -10 1 -20q0 -59 -25 -109h-86q-15 26 -18 73q-10 2 -15 2z" />
    </font>
</defs>
</svg>
